BASIC
ADVANCED
EXPERT
MASTER
(190){16}1,,,2,2,,3,,,,4,,,,5,,,,E2,,E8,,E3,,E7,,E4,,E6,,C,,8,,,7,7,,6,,,,5,,,,4,,,,E8,,E2,,E7,,E3,,E6,,E4,,C,,1,,1,,2,,2,,3,4,3,,2/5,,1,,
8,,8,,7,,7,,6,5,6,,7/4,,8,,4,5,4,5,3,6,3,6,2,7,2,7,1,8,1,8,{4}2x-4[8:1]/7x,8x-6[8:1],1x-5[8:1],8b,
{16}6h[16:3],,,5,6,,4/7,,6,,2/5,,3,,4/7,,6,5,6,5,6,,4,,3/5,,2,,1/7,,8,,3h[16:3],,,4,3,,5/2,,3,,7/4,,6,,5/2,,3,4,3,4,3,,5,,6/4,,7,,8/2,,1,,
6h[16:3],,,5,6,,4/7,,6,,2/5,,3,,4/7,,6,5,6,5,6,,4,,4/5,,3/6,,2/7,,1/8,,7h[16:3],,,8,7,,1/6,,2h[16:3],,,1,2,,8/3,,1,8,1,8,1,8,1,8,{32}1x,2x,3x,4x,5x,6x,7x,8x,{4}1b,
{8}6h[8:7],,,5,,5,,5>2[8:3],,,,,B7/B8,,B4/B5,,3h[8:7],,,4,,4,,4<7[8:3],,,,,B2/B1,,B5/B4,,7h[8:7],,,8,,8,,8>3[8:3],,,,,B7/B6,,B3/B4,,
2h[8:7],,,1,,1,,1<6[8:3],,,,,B2/B3,,B6/B5,,{16}1x/8x,,3,4,3,,6,5,6,,2,4,3,,7,5,6,,1,4,3,,8,5,6,,1,8,1,,2x/7x,,{8}2x/7x>2[8:1],,3b,,6x/3x<6[8:1],,7b,,1x/8x,1x/8x<5[8:1],,1x>4[8:1],,8x<5[8:1],,1x,2x,3,4,5<8[8:1],,4x>1[8:1],,5x,6x,7,8,1,{16}2x/4x,,,7x/5x,,,4x/5x,,{8}4x/5x,6,7,4x/8x,4x/8x,3,2,1x/5x,1x/5x,4/6,3x/7x,2/8,1b-5[8:1],,5bw1[8:1],,{16},Cf,{8},{4},1>4[8:1]/8<5[8:1],{64}E2/E8,E3/E7,E6/E4,,{16},{8},
{24}1b,2x,3x,4x,,,8b,7x,6x,5x,,,1b,2x,3x,4x,,,8b,7x,6x,5x,,,1b,2x,3x,4x,,,8b,7x,6x,5x,,,{8}2,1/3,4/8,5/7,6b-2[8:1],,3b-5[8:1],,7b-1[8:1],,2b-6[8:1],,8b,,4/7,4/7,3,2/5,6,4/7,{24}8b,7x,6x,5x,,,1b,2x,3x,4x,,,8b,7x,6x,5x,,,1b,2x,3x,4x,,,8b,7x,6x,5x,,,1b,2x,3x,4x,,,{8}7,8/6,5/1,4/2,3x>8[8:1],,5x<8[8:1],,4xw8[8:1],,,,2b/6b,,3/4,5/6,{4}1>4[8:1]/8<5[8:1],{64}E2/E8,E3/E7,E6/E4,,{16},{8},{24}8b,7x,6x,5x,,,2b,3x,4x,5x,,,8b,7x,6x,5x,,,1b,2x,3x,4x,,,7b,6x,5x,4x,,,1b,2x,3x,4x,,,{8}7,8/6,5/1,4/2,3b-7[8:1],,6b-4[8:1],,2b-8[8:1],,7b-3[8:1],,1b,,5/2,5/2,6,7/4,3,5/2,{24}1b,2x,3x,4x,,,7b,6x,5x,4x,,,1b,2x,3x,4x,,,8b,7x,6x,5x,,,2b,3x,4x,5x,,,8b,7x,6x,5x,,,{8}2,1/3,7,6/8,{16}4,5,4,5,4,5,4,5,{32}4x,3x,2x,1x,8x,7x,6x,5x,4x,3x,2x,1x,8x,7x,6x,5x,{1}4b>5[2:1]*q5[2:1],
{4}2b/7b,E2,C,E6,7qq4[2:1],,2b,3b,2,E8,C,E4,2pp5[2:1],,7b,6b,7,E5,C,E1,2h[4:1]/7h[4:1],,3h[4:1]/6h[4:1],,{8}4/5,3/6,2/7,1/8,{16}2,7,2,7,3,6,3,6,{8}4hx[4:1]/5hx[4:1],,,,E3,E7,C,,
{8}1b/8b,,4/7,4/7,,E1/B1/B2/E3,,4/7,{16}4/7,,6,5,6,,4/7,,4b-1[8:1]/7b,,,,5b,,,,{8}4b/8b,,5/2,5/2,,E1/B8/B7/E7,,5/2,{16}5/2,,3,4,3,4,3,4,3,,2/5,,1x,1x,1x,1x,1b,,7,8,7,,1/6,,,,E3/B3/B4/E5,,,,1/6,,1/6,,7,8,7,,1/6,,2,1,2,,3/8,,5/6,,3/8,,2,1,2,,3/8,,,,
E7/B6/B5/E5,,,,3/8,,1/6,,1/6,,8/3,,8/3,,2x-6[8:1]/7x-3[8:1],,2x/7x,,,Cf,,,1b/8b,,,,5/7,,5-2[8:1]/7,,,,7-4[8:1],,,,3,,3b,,,,2/4,,2/4-7[8:1],,,,2-5[8:1],,,,6,,6hx[16:3],,,5,6,,4/7,,8h[16:3],,,1,8,,2/7,,3hx[16:3]/6b,,,4,3,,2/5,,6hx[16:3]/3b,,,5,6,,7/4,,
8b,,3,4,3,,2/5,,1b,,6,5,6,,7/4,,8b,,3,4,3,,2/5,,1b,,6,5,6,,4/7,,3x/5x,,3/5,,4x/7x,,4/7,,2x/6x,,2/6,,4x/8x,,4/8,,{32}1x,2x,3x,4x,5x,6x,7x,8x,1x,2x,3x,4x,5x,6x,7x,8x,1x,2x,3x,4x,5x,6x,7x,8x,1x,2x,3x,4x,5x,6x,7x,8x,{1}1x/Chf[1:1],{4},,,2b/7b,
{16}1/8,,2,1,2,,7,8,7,,3,4,2,,6,5,7,,4,5,4,,1x/8x,2x/7x,3b/6b,,,,5/6,,3/4,,1/2,,7,8,7,,5/6,,3/4,,2,1,2,,3/4,,5/6,,7,8,7-3[8:1],,1,,1-5[8:1],,,,8b,,,,2/7,,6,5,7,,3,4,2,,6,5,8,,3,4,1,,5/6,,7/8,,1/2,,3b/8b<5[8:1],,,,1,,2,,3/4,,2/5,,1/6,,7b/8b,,,,2,1,2,,3b>8[8:1]/8b,,,,
5b<8[8:1],,,,4bw8[8:1],,,,{64}B4,Cf,B8,,,,,,{16},,,,2b/6b,,7,8,7,,2,1,2,,6,5,7,,3,4,2,,5,4,5,,1x/8x,2x/7x,3b/6b,,,,3/4,,5/6,,7/8,,2,1,2,,3/4,,5/6,,7,8,7,,5/6,,3/4,,2,1,2-6[8:1],,1,,8-4[8:1],,,,1b,,,,3/5,,2,1,2,,3/8,,4/6,,7,8,7,,1/6,,3b/5b,,4b/6b,,2b/5b,,4b/7b,,{4}1b>4[8:1]/8b<5[8:1],{64}E2/E8,E3/E7,E6/E4,,{16},{8},{16}4x,5x,4,5,3x,6x,3,6,2x,7x,2,7,1x,8x,1,8,{24}1b,2x,3x,4x,,,8b,7x,6x,5x,,,{32}1b,2x,3x,4x,5x,6x,7x,8x,1x,2x,3x,4x,5x,6x,7x,8x,{1}1b/Ch[4:15],,,{4},,,1b,E
Re:MASTER
- MASTER譜面を追加しました。修正等ありましたらよろしくお願いします。 -- Sugar (2026-05-08 11:35:03)
最終更新:2026年05月08日 11:35