BASIC
(172)
{1},,,,
{2}
1,1,1,1,8,8,18,,
1,1,2,2,3,3,45,,
5,5,6,6,7,7,1x/8x,1x/8x,
8,8,7,7,6,6,4/5,4/5,
4,4,3,3,2,2,1b/8b,,
{1}1-4[4:3],,5-8[4:3],,1-4[4:3],,
{2}8,8,1/8,,
{4}8,8,8,,7,,7,,6,6,6,,4/5,,4/5,,
4,4,4,,3,,3,,2,2,2,,1/8,,,,
1,1,1,,2,,2,,3,3,3,,4/5,,4/5,,
5,5,5,,6,,6,,7,7,7,,1x/8x,,,,
{1}B8/B1,B7/B2,B6/B3,B5/B4,
C,,,
1h[1:1]/2h[1:1],,7h[1:1]/8h[1:1],,
{4}
1b,1,1,,2,2,2,,3,3,3,,4/5,,4/5,,
5,5,5,,6,6,6,,7,7,7,,1/8,,,,
8,8,8,,7,7,7,,6,6,6,,5,5,4/5,,
4,4,4,,3,3,3,,2,2,2,,1,1,1,,
1b/8b,,,,
{2}
1h[2:1],,2,2,3h[2:1],,4,4,
5h[2:1],,6,6,7h[2:1],,8,8,
{1}1-4[4:3]/8-5[4:3],,,,
E
ADVANCED
(172)
{2}3h[2:1],4,5h[2:1],4,6h[2:1],5,4h[2:1],5,
{4}3,3,3,,4,4,4,,5,5,5,,6,6,6,,
7-4[2:1],,,,3,3,3,,2-5[2:1],,,,6,6,6,,
7-4[2:1],,,,3,3,3,,2,2,2,,1x/2x,1x/2x,1b/2b,,
3-8[2:1],,,,7,7,7,,6-1[2:1],,,,2,2,2,,
3-8[2:1],,,,7,7,7,,6,6,6,,4b/5b,,,,
{2}3h[2:1],4h[2:1],5h[2:1],6h[2:1],
7h[2:1],6h[2:1],5h[2:1],6,
6h[2:1],5h[2:1],4h[2:1],3h[2:1],
2h[2:1],3h[2:1],4h[2:1],3bx,
{4}2,2,1x/2x,,3,3,3x/4x,,
5,5,6,6,5h[2:1]/6h[2:1],,,,
7,7,7x/8x,,6,6,5x/6x,,
4,4,3,3,4h[2:1]/3h[2:1],,,,
2,2,1x/2x,,3,3,3x/4x,,
5,5,6,6,5h[2:1]/6h[2:1],,,,
7,7,7x/8x,,6,6,5x/6x,,
4,4,3,3,4h[2:1]/3h[2:1],,,,
B2,B3,B4,,B7,B6,B5,,
B1,B2,B3/B4,,B8,B7,B6/B5,,
{1}Cf,,,
2-6[2:1],7-3[2:1],2-6[2:1],
{4}7,7,1b/8b,,
2,2,1x/2x,1x/2x,3,3,3x/4x,,
5,5,6,6,7h[2:1]/8h[2:1],,,,
7,7,7x/8x,7x/8x,6,6,5x/6x,,
4,4,3,3,1h[2:1]/2h[2:1],,,,
2,2,1x/2x,1x/2x,3,3,3x/4x,,
5,5,6,6,7h[2:1]/8h[2:1],,,,
7,7,7x/8x,7x/8x,6,6,5x/6x,,
4,4,3,3,1h[2:1]/2h[2:1],,,,
{1}Cf,
2-5[2:1],7-4[2:1],
{4}3,3,4,4,5/6,5/6,5/6,,
{1}7-4[2:1],2-5[2:1],
{4}6,6,5,5,4/3,4/3,4/3,,
{1}Cfh[1:2],,,,
E
EXPERT
MASTER
Re:MASTER
- BASIC, ADVANCED譜面を追加しました。修正等ありましたらよろしくお願いします。 -- HS (2026-09-15 16:56:42)
最終更新:2026年09月15日 16:56