BASIC
ADVANCED
EXPERT
MASTER
(173){1},,,
{2}4qq5[4:5]/6h[1:1],,,7x,
4h[1:1]/6pp5[4:5],,,2x,
3qq4[4:5]/5h[1:1],,,7x,
3h[1:1]/5pp4[4:5],,,2x,
4>6[8:9]/5h[1:2],,,{6},1b,1b,
1b,,,{8},Cf/B2/B3/B4/B5/B6/B7,,,8-2[8:1],2v3[8:1],3-5[8:1],,,,2b/6b,,
{16}7,8,7,,16,,3,4,,6,{8}5,34,8,56,1,3^8[8:1]/4,8^5[8:1],5,,1x,,
{16}2,1,2,,38,,6,5,,3,{8}4,56,1,34,8,5/6^1[8:1],1^4[8:1],4,,8x,,
{16}7,8,7,,16,,3,4,,6,5,,18,,2,5,3,6,4,7,5h[8:1],,8,8h[8:1],,4,,,1x/5x,,,,
3,7,3,7,2,6,2,6,1-5[8:1],5,{8}1,,,7b/E4/B4,,2b/E6/B5,,8b-4[8:1]/Cf,,,,
2h[4:1],,4-6[8:1],4-2[8:1],,,7,7,3,3,5-7[8:1],5-3[8:1],,,8h[4:1],1,
2h[4:1],7,6h[4:1],3,4^1[8:1],5,5h[4:1],,8^5[8:1],1,2h[16:5],,{16},4,,4,{8}3,25,
7xh[8:1],8,3xh[8:1],4,2-7[8:1]/5xh[4:1],,,,1xh[4:1]/6-3[8:1],,,,2/4-1[8:1],5,5,,
78,6,45,3,1/2q7[8:1],8,8,,1xh[4:1]/8-5[8:1],,,,26,45,3b/7b,,
{12}E1,E8,B2,B6,E4,E5,1x,8x,2x,8x,1x,7x,E1,E8,E2,E7/B6,E3/B3,E5,Cf,,,1x/8x,,,
E1,E8,B2,B6,E4,E5,1x,8x,1x,Cf,,,E4/B4,B6,B2,E8,E1,E7,3x,5x,4x,{8}Cf,,
1xh[4:1],8xh[8:3],,2,3h[4:1],4,6h[4:1],5,{16}E2,B2,B3,E4,E8,B7,B6,E6,E3,B3,B4,E5,{12}Cf,,,
1x,8x,2xh[3:1],Cf,,,8x,1x,7xh[3:1],Cf,,,1x,8x,2x,8x,1x,7x,{8}Cfh[4:1],,8b,,
1x-4[8:1]/6x^4[8:1],,16,,38,7,16,,34,2,5qq3[8:1]/6q2[8:1],7,,,4x/8x,,
1<4[8:1]/6,,1x/2x,,8,17,26,,4-1[8:1]/5-8[8:1],,4qq4[8:1]/5pp5[8:1],,,,2x/7x,,
1<3[16:3]/3h[4:1],,,,1,2,3^6[8:1]/8,,8-5[8:1],8,2-6[8:1],2,4-1[8:1]*-7[8:1],4,,,
8z4[8:1]*-5[8:1],8,,,2x/6x,3x/7x,4x/8b,,36,8,3/6p5[4:1],1,{4}36,1b,
1h[1:1],,B4/B5,7,7h[1:1],,E6/B6,3,
3h[1:1],,E2/B2,5,5h[2:1],,Cf,,
1^4[2:1],,E3/B3,8,8^5[2:1],,E7/B6,1,
1^4[2:1],,C,8,8h[4:1],2h[4:1],4h[8:7],6h[16:13],,,,,
1b-5[8:1]/2b-5[8:1],12,{16}3/8-5[8:1],,7,,6h[4:1]/8,,,,1,2,3h[8:1],,1-5[8:1],8,{8}7h[8:1],1x,7x,4x/8x,,
7-4[8:1]/8-4[8:1],,78,,1-4[8:1]/6,2,1/3h[4:1],,{16}8,7,6h[8:1],,8,1,{8}2^8[16:1],7^2[8:1],,,,
4/8h[8:1],5,3/8h[8:1],4,2-6[8:1]/8,,4x,,1h[8:1]/5,4,1h[8:1]/6,5,1/7-3[8:1],,5x,,
4x/8x,{16}6,5,7,,3,4,2,,78,,16,,,,2x,3x,4x,5x,8x,7x,6x,5x,8x,1x,2x,3x,{8}4x/8b,,
7-4[8:1]/8-4[8:1],,78,,1-4[8:1]/6,2,1/3h[4:1],,{16}8,7,6h[8:1],,8-4[8:1],1,{8}2h[8:1],8x,2,1x/5x,,
1-5[8:1]/2-5[8:1],,12,,3/8-5[8:1],7,6h[4:1]/8,,{16}1,2,3h[8:1],,1,8,{8}7^1[16:1],2^7[8:1],,,,
1h[8:1]/5,4,1h[8:1]/6,5,{16}7b-3[8:1],8b,7b,8b,{8}7b,,14,2,36,7,5w1[8:1]/8,,,,
3xh[4:1]/7xh[4:1],,,,1xh[8:3]/5x,,4,4xw8[8:1],,,,2b/6b,,,,,
4>6[4:5]/6,,6,,5,5h[8:7],,,{1},
{8}3/5<3[4:5],,3,,4,4h[8:7],,,{1},
{8}4>6[4:5]/6,,6,,5,5,,,{2}Cf,,
4-2[8:1]/5-7[8:1],4-1[8:1]/5-8[8:1],{8}34,2,56,7,1b/8b,4b/5b,2b/7b,,
1x-4[8:1]/6x^4[8:1],,1x/6x,,37,26,1b/5x,,34,1,5^2[8:1]/6,8^5[8:1],5x-1[8:1],,,,
3-8[8:1]/7-4[8:1],,3x/7x,,15,26,3x/7b,,56,7,1^4[8:1]/8,4xh[8:1],1^6[8:1],6xh[8:1],,,
2-5[8:1]/6-1[8:1],,2x/6x,,48,37,2b^7[8:1]/6x,,5-8[8:1],5,4-1[8:1],4,6^3[8:1],6,1x,,
8z4[8:1]*-5[8:1],8,8x,,2h[4:1]/6h[4:1],,,4qq1[8:3]/5pp8[8:3],,,,Cf,,,1b/8b,,
{16}7,8,7,8,6,,3,4,,6,5,,12,,38,,5,,17,,2-5[8:1]/6-1[8:1],,37,,2x/6x,,,,3b/7b,,,,
2,1,2,1,3,,6,5,,3,4,,78,,16,,4,,28,,3-8[8:1]/7-4[8:1],,26,,3x/7x,,,,2b/6b,,,,
7,8,7,8,6,,3,4,,6,5,,47,,3,4,2,5,1,8,2,7,5,6,4,8h[16:3],,,1b,,,,
3,4,3,4,1,8,1,8,5-1[8:1],6,5,6,5x,,,,3b/6b,4x/5x,,,{32}2b/7b,3x/6x,4x/5x,,,,,,{48}1b>7[4:11]/8b<2[4:11],2x/7x,3x/6x,{1}4x/5x,,,,,E
Re:MASTER
最終更新:2026年06月20日 13:41