| アーティスト |
幽閉サテライト(Produce:嵯峨飛鳥 Arranged:Iceon) |
BASIC
ADVANCED
EXPERT
MASTER
(138){2}3<6[4:1],7p3[4:1],2qq5[2:1],,6>3[4:1],2q6[4:1],7pp4[2:1],,{4}3h[1:1],4>1[4:1],,,6h[1:1],5<8[4:1],,,2,2h[2:1],,4h[2:1],,5p4>5[2:3],{2},,,,{4}5>1[4:1]/7,6,4<8[4:1],3,5>1[4:1],6,4,3/5,4<8[4:1]/2,3,5>1[4:1],6,4<8[4:1],3,5,6/4,3h[4:1],1h[4:1],8h[4:1],6h[4:1],5V31[4:1],,
4V68[4:1],,5>6[2:1],,,5-3-6-2-7-1[4:3],3h[4:3],,,,
{16}1x/2x,,,,,,8,,8h[16:3],,,6h[16:3],,,5,,4,,,,,,1,,1h[16:3],,,3h[16:3],,,4,,{4}5<8[4:1],,4>1[4:1],,8b,,3,4>1[4:1]*<7[4:1],,,{16}8h[16:3],,,6h[16:3],,,5,,{4}4,3/4,{16}1h[16:3],,,3h[16:3],,,4,,{4}4-1[4:1],6,5-8[4:1],3,1h[8:3],{8},8,8V64[4:1],,,,{16}3h[16:3],,,2h[16:3],,,1,,6h[16:3],,,7h[16:3],,,8,,4h[16:3],,,2h[16:3],,,1,,7/8,,,6,5,,4/5,,{8}3>8[8:1],,4,5,6<1[8:1],,5qq1[2:1],,{4}8x,7x,6x,1/5,{16}6h[16:3],,,7h[16:3],,,8,,3h[16:3],,,2h[16:3],,,1,,5h[16:3],,,7h[16:3],,,8,,2/1,,,3,4,,5/6,,4/7-3[8:1],,,3,3,,2,,1-5[8:1],,,8,{4}8<4[4:1],4>8[4:1],8,Ch[2:1],,,,1-5[8:1]b,1p8<2[2:1],
{4}7h[2:1]/1b,,{8},7x/8x,7x/8x>3[4:1],,3<6[4:1],,6<1[4:1],,1,,4,4,2/6,,5<2[4:1],,2<5[4:1],,5pp1[8:3]b,,1b,,,,,
1/2,3,4,5>1[4:1]/6,E2,E3,E4,E5,8/7,6,5,4<8[4:1]/3,E8,E7,E6,E5,,4xV68[4:1],3,2,,3,,2-7[4:1],2,7q2[2:1],7,8xbh[8:5],,,,,1x,1x/8xq1>7[2:1],,2h[4:1],,,,1x,1x,1x<6[4:1]/2x,,6>3[4:1],,3>8[4:1],,8,,5,5,3/7,,
4>7[4:1],,7>4[4:1],,4qq8[8:3]b,,8b,,,,,8/7,6,5,4<8[4:1]/3,E8,E7,E6,E5,1/2,3,4,5>1[4:1]/6,E2,E3,E4,E5,7/8,7/8,,1/2,1/2,3/4,{16}5,5,4,,5/6,,{8}7<1>7[2:3]/8z4z8[2:3],7/8,{2}7b/8b,,,{4},1b>4[8:1]/5b<8[8:1],1/5w1[8:1]b,A5f,
{8}3/7,4/6,4/6<1[4:1],,1>4[4:1],,4<7[4:1],,7,,1,1,3/7>2[8:1],,5,,4-6-3-7-2-8[8:5]b,4h[4:3],,,,,,,,4/3,2,1,8>4[4:1]/7,E4,E3,E2,E1,5/6,7,8,1<5[4:1]/2,E6,E7,E8,E1,3x/5x,4-1[8:1]*-7[8:1],4,,,1x/7x,,6-3[4:1],6,3V58[8:3],3,4bhx[8:5],,,,,8x,8x,5/7,5>1[4:1]/7,,6,,8z4[8:3],8,2,,3-8V24[8:3],,5,,7,,8,8,2>5[8:1]/6,,7,,6-8-5-1-4-2[8:5],6h[8:7],,,,,,,,5/6,7,8,1<5[4:1]/2,E6,E7,E8,E1,4/3,2,1,8>4[4:1]/7,E4,E3,E2,E1,,4/5,,{16}6V82[4:1],,,5,5,,4,,3V17[4:1],,,4,4,,5,,{4}Ch[1:4],,D1,D2,D3,D4,D5,D6,D7,D8,D1,E
Re:MASTER
- MASTER譜面を追加しました。修正等ありましたらよろしくお願いします。 -- Sugar (2026-05-24 19:04:36)
最終更新:2026年05月24日 19:04