| アーティスト |
岸田教団&THE明星ロケッツ×草野華余子 |
BASIC
ADVANCED
EXPERT
MASTER
(133)
{1}4V68[2:1]/6h[4:7],1V35[2:1],
{4}5h[2:3]/6V48[2:1],,,,8,8,7,6,
{4}45,35,25,15,1/5V37[2:1],1,1,1<2[4:3]b,
{4}6bh[1:1],,,,1-5[8:1],8x,{16}47,,47,,6,5,6,5,
{16}6h[16:3],,,8h[16:3],,,{8}1^6[8:1],,5,5,4,{16}3h[16:3],,,1h[16:3],,,{8}8>3[8:1],,4,4,5,
{16}6h[16:3],,,8h[16:3],,,{8}1^6[8:1],,5,5,4,3h[8:1]/4h[8:1],,{4}1h[8:1]/2h[8:1],7h[8:1]/8h[8:1],56,
{16}4,5,4,5,3,5,3,5,2bh[8:3],,,,,,{8}4,5h[2:1],,,,4h[8:3],,,5,
{8}6h[2:1],,,,4h[2:1],,,6,7h[2:1],,,,6,,5/8w4[4:1],,
{2},{16}2h[16:3],,,4,4,,{8}35,46,7x,48,4,{16}7h[16:3],,,5,5,,46,,
{8}35,2x,15,5,{16}6/4h[16:3],,,5,3,,24,,1/5h[16:3],,,2,4,,{8}35,6-4[8:1],6,1-5[8:1],1,
{8}8,,47,,3-7[8:1],3,5,5,6-4[8:1],6,1,1,2-8[8:1],2,4,,
{8}A5/A6/D6/E6,,28,7,6-2[8:1],6,4,4,3^5[8:1],3,8,8,7-3[8:1],7,3V58[16:5],2,
{8}1x,,1,1,28,{16}7,5,6,,6,,56,,4,5,,3,4,,17,,2,4,3,,3,,
{16}34,,5,4,,6,5,,4/8h[16:3],,,6h[16:3],,,5,,1h[16:3],,,3h[16:3],,,4,,45,,6,5,,2,4,,
{8}7/8-4[8:1],,8b,,5x/3hx[4:7],,,E4,E5,,B6/E6,,B4/E4,,,E5,
{8}E6,,7,,4/7h[4:7],,,E7,E6,,{4}B3/B4/E4,B1/E2,B7/E7/E8,
{4}B5/E5,4>1[4:1],6,6,16,2/5^8[4:1],3h[8:1],3h[8:1],
{8}3h[8:1]/8h[8:1],,4h[8:1]/7h[8:1],,56,56,78,78,12,12,34,34,4h[8:3]/5h[8:3],,,,
{16}4-1[8:1]/5-8[8:1],,,,4b/5b,,,,2x^5[16:3],,,5-1[8:1],,,8,,7^4[16:3],,,4-8[8:1],,,2,,3^8[16:3],,,8-4[8:1],,,5,,
{16}6x^1[8:1]b,,,3,,,2,,4/2h[16:3],,,3,,,45,,5/7h[16:3],,,8,,,{8}18,1x-5[8:1]/2x-4[8:1],,12,,
{16}7x-5[8:1]/8x-4[8:1],,,,78,,,,2b/1b^6[8:1],,,3,,,5,,5/4^1[8:1],,,6,,,8,,8/7^4[8:1],,,1,,,3,,
{16}2b/3b,,,78,,,25,,3/4^7[8:1],,,8,,,1,,1/2-5[8:1],,,5,,,{8}6,7b/8b,,5-1[8:1]/7-4[8:1],,
{16}57,,,,28,,,,3/7x^4[16:3],,,4-8[8:1],,,1,,2^7[16:3],,,7-3[8:1],,,4,,6^1[16:3],,,1-5[8:1],,,4,,
{16}3x^8-4[4:1],,,4,,,5,,6h[16:3],,,5,6,,47,,3h[16:3],,,4,3,,{8}25,7x-4[8:1]/8x-4[8:1],,78,,
{4}1x-5[8:1]/2x-5[8:1],1/2<4[2:1],2b/Cf,,,2/4<2[2:1],3,3,
{2}3w7[8:1],{16}5/1h[16:3],,,3h[16:3],,,4,,5h[16:3],,,7h[16:3],,,{8}8,1-5[8:1],,1>8[16:5]b,,
{8},,,,2b/7h[2:1],,,5,5,,{4}4>8[4:1],8<4[4:1],4,
{8}8,,35,26,{16}1bx/7bhx[16:3],,,8bx,,,8bx/2bhx[16:3],,,1bx,,3bx/4bx,,,{8}7bx/8bx,1bx-5[8:1]/6bx-1[8:1],,16,,
{16}4x/8x,,7,5,6<3[4:1]b,5,6,,,,,,{8}4x,,1h[16:3]/7h[16:3],,17,26,{16}3,4,2,,17,,6,,
{4}5/2-5[8:1],6-1[8:1],3-8[8:1],7^4[8:1]b,1b,{16}2h[16:3],,,4,,4,3,,25,,36,,
{16}4/7h[16:3],,,6,,,18,,,5/2h[16:3],,,4,,35,,6h[16:3],,,5,6,,{8}56,7^4[8:1],8,1,2,
{16}3h[16:3],,,4,3,,{8}34,2>5[8:1],1,8,7,6-2[8:1],,5,4,1-5[8:1]/3-5[8:1],,13,,
{16}7h[8:1]/8h[8:1],,,1h[8:1]/6h[8:1],,,34,,1h[8:1]/2h[8:1],,,3h[8:1]/8h[8:1],,,{8}56,5/4pp1>7[4:3],,,,,,,,
{4}8w4[8:1]b,8b,,,,,,,
{1},,
{1},,
E
Re:MASTER
- MASTER譜面を追加しました。修正等ありましたらよろしくお願いします。 -- けもがみ (2026-11-09 11:55:40)
最終更新:2026年11月09日 11:55