BASIC
ADVANCED
EXPERT
MASTER
(140)
{8}2/6h[8:3],,,4h[8:3],,,5,4,3h[8:3],,,4h[8:3],,,5,,7/3h[8:3],,,5h[8:3],,,4,5,6h[8:5],,,5h[8:2],,,3/4,4/3h[8:3],,,5h[8:3],,,4,5,4/6h[8:3],,,4h[8:3],,,5,4,5h[8:3]/3h[8:3],,,,4/6,,7-3[8:1],,1b,,,,,,
{16},2,,2,,3/4,,6,5,7,,3/4,,5,,2/4,,1x,,3,4,3,,1x,,6,5,6,5,8,,x1/7,,2,,3,4,3,,5,,4/6,,3/7,,2,8,2,8,,x1,,x1,,7,5,7,5,6,4,6,4,5,3,4,,bx1/8b,,,,7,5,6,5,6,,1,2,1,2,1,,7/8,,5/6,,7/8,,1,5,2,4,3,7,5,6,1,,3/4,,8b/2b,,7^4[8:1],,7,,3-6[8:1],,3,,8,,x8,,6,5,6,,2^7[8:1],,2,,6^3[8:1],,6,,1,,x1,,3,4,3,, 5-8[8:1],,1,,x1,,3,,7,,x6/5,,3,4,3,4,x2,,3/5,,x4/6,,7/8,,x2/x6,,,,3,4,3,4,x2,,6,5,x7,,3,4,1,,2/8,,7,5,6,5,,4/6,,3,4,,1/2,,x3/x7,,,,6,5,6,5,x7,,3h[16:1],x4,,6h[16:1],5x,,2h[16:1],x4,,7h[16:1],5,,1/8,,x2,,1/8,,x7,5,6,4,5,3,4,,7b/1b,,2b/8b,,3,5,3,5,4,6,4,6,5,7,5,7,6,,1b,,8h[8:1]/2h[8:1],,,4h[8:1]/5h[8:1],,6b/2b,,,,7,7,4-8[8:1],5,3,,
{8}1b>7[2:1],,,,C,,,,8-6-4-2[2:1],
{16},x1,,x1,
{8},C,,,,2-4-6-8[2:1]
,,,,C,,,,8<2[2:1],
{16},x1,,x1,
{8},C,,1-5[4:1],,8bh[4:3],,,,,,1-5[4:1],,4bh[4:3],,,,,,
{16}8,,1b/5b,,2h[16:3],,,3h[16:3],,,4,,,8h[16:3],,,7h[16:3],,,6,,1/5,,3,4,,6,5,,7/5-1[8:1],,,,6,,6,,7b/8b<5[8:1],,1,,8/2,,3,,2/4,,7,8,7,,1/6,,4/3h[8:1],,x8,,5h[16:3],,x8,,3h[16:3],,x8,,6h[16:3],,x8,,1/5<8[8:1],,4,,5/3,,2,,1/3,,6,5,6,,1/8,,6/3h[8:1],,x8,,5h[16:3],,x8,,3h[16:3],,x8,,4h[16:3],,x8,,1/6,,7,8,7,,1/6,,3/8,,2,1,2,,3/8,,
{8}7x^5[8:1]b/5x^2[8:1]b,,7/5,,1xs5[8:1]b/5,,1/5,
{16},2/6,,5,,4/8,,1,,3/8,,6,5,
{8}6p4>5[4:3],1,C,,,,,,2,3,4V26[4:1]/6,,,,5h[2:1],,,,
{16}7,,7,6-3[8:1],,6,,,4^1[8:1],,,,7,,,,
{8}3/5V73[4:1],,,,4h[2:1],,,,
{16}2,,2,3-6[8:1],,3,,,5^8[8:1],,,,2,,2,,3/7v6-4[4:1],,,,,,,,3h[4:1],,,,5h[4:1],,,,7,,7,6-3[8:1],,6,,,4^1[8:1],,,,7,,,,2-4[8:1]/6-4[8:1],,,,,,,,2/6,,3,,5,,4/6,,3/7,,2,4,3,,7,5,6,,4,5,3/6,,,,
{8}5-1[8:1],5-7[8:1],,,4-8[8:1],4-2[8:1],,,5bh[4:1],,3b,,7b-3[16:1],,1b,,
{16}8/2,,2,4,3,5,4,6,5,7,5,6,3,4,2,,1/7,1/7,,3,4,3,5,,1w5[8:1]b,,8x/2x,8x/2x,,Cf,,,,3-6[8:1]/7-4[8:1],,2/8,,3b/7b,,,,1/8,,7,8,7,,1/6,,3/4h[16:3],,x1,,5/6h[16:3],,x1,,3/4h[16:3],,x1,,5/6h[16:3],,x1,,8/4^1[8:1],,5,,6/4,,7,,6/8,,3,4,3,,1/8,,6/5h[16:3],,x8,,4/3h[16:3],,x8,,6/5h[16:3],,x8,,4/3h[16:3],,x8,,1/6,,7,8,7,,1/6,,8/3,,2,1,2,,8/3,,x6/1b,x5,x4,,x6/1b,x5,x4,, x6/1b-6[8:1]*-4[8:1],x5,x4,,1b,,,,8/2,,7,,6/1,,2,,3/5,,7,8,7<3[4:1],,1,,3>7[4:1],,,,7^4[4:1],,,,3,,,,1/8,,2/7,,5-8[8:1]/4-1[8:1],,5b/4b,,,,,,3/6,,7,8,7,,2/6,,5/7h[16:3],,x1,,5/4h[16:3],,x1,,5/6h[16:3],,x1,,5/3h[16:3],,x1,,8/4^1[8:1],,5,,6/4,,7,,6/8,,3,4,3q5[16:3],,7,,7,,,,6h[16:3],,x8,,5h[16:3],,x1,,4h[16:3],,x2,,B7f/E7/A7,,B3f/E4/A3,,B5f/E6/A5,,B1f/E2/A1,,x7/x8,,6,5,6,,1/7,,8b/x3,x4,x5,,8b/x3,x4,x5,,8b-5[8:1]*-3[8:1]/x3,x4,x5,,8b,,,,1/6,,2,,3/8,,4/7,,1,6,1,4,1<2[2:1],,2,,C,,,,,,,,,,,,1,,7,,5/3,,1,,4/6,,8,,3/7,,2/6,,1<2[2:1]/5,,2,,Cf,,,,,,,1-5[8:1],,1/8h[1:1],,,,,,A7,,A6,,A5,,A4,,A3,,A2,,7<2[1:1]/1s5s1[1:1],,,,,{2},,,{16}6/5-1[8:1]b,,8b,,8b,,7^4[8:1],,7,,3-7[8:1],,3,,8p4[8:1],,8,,3-7[8:1],,3,,1-4[8:1],,1,,3,,3,,6-1[8:1]/5-1[8:1],,,,5b/6b,,,,8/1>5[8:1],,1,,6-2[8:1],,6,,1q5[8:1],,1,,6-2[8:1],,6,,8-5[8:1],,8,,6,,6,,3-8[8:1]/4-8[8:1],,,,3b/4b,,,,,,1/7,,2,,8/3,,7,,5/6,,3,4,3,,6,,x4/8xz4[8:1]b,,,,1b/8b,,,,2x^4[8:1]b/4x^7[8:1]b,,,,2b/4b,,,,3/8,,6,5,,3,4h[2:1],,7,,8,,1,,2,,8/3,,6,5,,3,4,,5^8[8:1]/4^1[8:1],,4b/5b,,,,,,2,4,3,4,x1,,x1,,6,5,7,4,5,3,6,2,4,3,5,2,6-4[8:1],,7,,6b,,7-3[8:1],,8,,7b,,2,,1/2,,
7,5,6,5,x8,,x8,,3,4,2,7,5,6,4,7,3-5[8:1],,2,,3b,,2-6[8:1],,1,,2b,,7,,7,5,6,5/4,3,4,2,2,,6,5,7,7,,1xs5[8:1]b,,,,8b/1b,,,,7x^5[8:1]b/5x^2[8:1]b,,,,7b/5b,,,,7/8,,6/5,,3/4,,1/2,,7,8,7,8,6,,3/4,,8/2,,6/5,,1/7,,3/4,,2/6,,1-4[8:1]/5-8[8:1],,4/8,,1b/5b,,
Re:MASTER
最終更新:2026年05月11日 07:32