アットウィキロゴ

怪盗Rのテーマ〈でらっくす〉

アーティスト 大谷智哉「リズム怪盗R 皇帝ナポレオンの遺産」

BPM BASIC ADVANCED EXPERT MASTER Re:MASTER
147 3 6 10 13 -

EXPERT MASTER Re:MASTER
譜面制作者 サファ太 Luxizhel -

BASIC


ADVANCED


EXPERT


MASTER

(147)
{16}3h[16:3],,,5h[16:3],,,4,,6h[16:3],,,4h[16:3],,,5,,
{16}2h[16:3],,,4h[16:3],,,3,,7h[16:3],,,5h[16:3],,,6,,
{16}1h[16:3],,,3h[16:3],,,4,,7h[8:3],,,,,,5,6,
{16}4,5,,3/4,,2V41-5[8:5],1,,{4}Cf,,
{4},6V48-3[8:5],Cf,,
{4},2^5[8:1],6,6,
{8}6,5,6/4p3[16:5],7,8,,8,,
{8}2/8,7,1/6,5,4/1p6[8:3],,4,,
{4}4,5/7,7b/8b^3[8:1],6/8,
{4}4b/5b^8[8:1],5/3-5[8:1],7b,5/6,
{8}6,5,4/6,,6/2^5[4:1],,6,,
{8}6,5,6,4,3/5,{16}2,2h[8:1],,4h[8:1],,3-6[8:1],
{4},8,{16}5/7,,,4/5,,,2/4,,
{4}1/7,2bx/6bx,{8}3,3,4q1[16:3],4,
{16}3,,,,3,,2,1,2h[16:3],,,4,3,,3/4pp6[4:1],,
{8}3/4,,2,1,{16}8h[16:3],,,7,8,,7/8,,
{8}6/1q6[4:1],,7,8,{16}8h[16:3],,,6,6,,5/7,,
{8}8,1/7,2/6,,2,2,4q1[16:3],4,
{16}3,,,,2,,3,1,3h[16:3],,,4,3,,3/4,,
{8}5/2^5[8:1],,7,7,{16}8h[16:3],,,5,6,,4/7,,
{16}3h[16:3],,,4,3,,2/5,,5/2q7[4:1],,,8bh[16:9],{4},
{16},,,,7pp4[4:2],6,5,4,{4}3h[4:2],,
{8},2/5,6/1pp4[4:2],7,8h[4:1],,,,
{4}8,8V24-6[16:9],4,,
{4}1h[4:1],7h[4:1],{16}5h[16:3],,,6,5^8[4:1],,6/4h[8:3],,
{4},,{16}1h[16:3],,,3h[16:3],,,4,,
{4}5/2^5[4:1],{16},,6,7,8h[16:3],,,6h[16:3],,,7,,
{4}7-1[8:1]*-5[8:1],,2h[8:1]/4h[8:1],4h[8:1]/5h[8:1],
{4}5h[8:1]/7h[8:1],1h[8:1]/8h[8:1],{16}5/7,,,4/5,,,2/4,,
{4}1b/8b,,{16}3/7,,2,8>7[16:5],1,7,,5hbx[16:5]/A8f,
{4},,{16}6/8,,7,1<2[16:5],8,2,,4hbx[16:5]/A1f,
{4},,{16}1/3,,2,1v6[8:1],2,8,,6b/A1f,
{8},7,7-4[8:1],5,4V61[4:1],{16},2x-6[8:1],,,2x,,
{8},8,5/8,,7-5[8:1],4-8[8:1],7,4,
{16}6h[16:3],,,8h[16:3],,,1,,1h[16:3],,,3h[16:3],,,4,,
{4}2-4[8:1]/5-7[8:1],,{16}4/7,,6,5^8[8:1],,3,4,,
{4}2-6[8:1],2/7-4[8:1],7/8h[4:1],{16},,1/5,2/6,
{4}3b-8[8:1]/7b-4[8:1],3/7,{16}2/6,,7,1<2[16:5]b,8,2,,4hbx[16:5]/A1f,
{4},,{16}1/3,,2,8>7[16:5]b,1,7,,5hbx[16:5]/A8f,
{4},,{16}6/8,,7,8v3[8:1]b,7,1,,3b/A8f,
{8},2,2-5[8:1],4,5V38[4:1],{16},7x-3[8:1],,,7x,,
{8},1,4/1,,2/4,3,5/7,6^3[8:1],
{8},2,{4}1-6[8:1],3-8[8:1],5-1[8:1],
{16}7x,,,6x<4[16:9],,,6x,,{4}E2/B2/E3f,,
{4}1,8-4[8:1]/7-4[8:1],A8/D8f/A7,1-5[8:1]/2-5[8:1],
{4}A1/D2f/A2,,8h[4:7],,
{1},
{16}6,,6,,6,5,4,3,2h[16:3],,,1h[16:3],,,3^6[8:1],,
{8},7,7,,{16}7h[16:3],,,8h[16:3],,,7^2[8:1],,
{8},5,5,,{16}4h[16:3],,,3h[16:3],,,2^7[8:1],,
{8},5,5,,{16}6h[16:3],,,7h[16:3],,,8p3[8:1],,
{8},1b,2b,,{16}2h[16:3],,,4,3,,4/2>6[16:3],,
{8},7,7h[4:1],,{16}5h[16:3],,,6,5,,4/6<2[16:3],,
{8},3,3h[4:1],,{16}4h[16:3],,,2,4,,1h[4:2]/5h[4:2],,
{4},,{8}2/4,3,5/7,6,
{16}3,4,,1/8,,6,5b,,3/8,,2,1V75^2[16:5],3,4,,4hbx[16:5]/A1f,
{4},,{16}1/6,,7,8V24^7[16:5],6,5,,5hbx[16:5]/A8f,
{4},,{16}4/8,,3,1-5[8:1],2,8,,6b/A1f,
{8},7,4/7,3/6pp1[8:3],{16}2x/5,,,2x^5[8:1],,,2x,,
{8},8,4/8,,7-1[8:1],3-5[8:1],7,3,
{16}8h[16:3],,,6h[16:3],,,4,,5/3h[16:3],,,1h[16:3],,,8,,
{4}1-3[8:1]/7-5[8:1],,{16}2/4,,3,4^1[8:1],,6,5,,
{4}7-3[8:1],7/1-5[8:1],1/8h[4:1],{16},,4/7,3/6,
{4}2b-5[8:1]/5b-8[8:1],2/5,{16}3,4,2,6>7[16:5],5,7,,8bh[16:5]/A6f,
{4},,{16}6,5,7,3<2[16:5],4,2,,1bh[16:5]/A3f,
{4},,{16}2,4,3,6-1[8:1],5,7,,8b/A6f,
{8},8,1/7,2/6qq3[8:3],{16}3/5,,,2x^7[8:1],,,2bx,,
{8},4,4/8,,1/3,2,5/7,6^3[8:1],
{8},1,1-6[8:1],1,3-8[8:1],3,5-2[8:1],5,
{16}6x,,,7x>6[16:9],,,7x,,{4}E5/B4f/E4,,
{4}1,8-5[8:1]/7-3[8:1],A8/D8f/A7,1-4[8:1]/2-6[8:1],
{4}A1/D2f/A2,5/7,{16}6h[16:3],,,5,6,,4h[16:3],,
{16},5,4,,{8}3/5,2/4,{16}3h[16:3],,,4,3,,5h[16:3],,
{16},4,5,,{8}4/6,5/7,{16}6,5,7,3,4,2,7,5,
{16}6-1[8:1],1,4,3,A6f,,,,2b/8b,2b/8b,2b/8b,
E

Re:MASTER


名前:
コメント:

タグ:

+ タグ編集
  • タグ:
最終更新:2026年05月31日 22:16