BASIC
ADVANCED
EXPERT
MASTER
(180){1}
4h[1:1],{16}5,4,5,4,5,4,5,4,5,4,5,4,{8}3bx/5bx,,
2h[4:1]/6h[4:1],,,Cf/D2/D3/D6/D7/A1/A2/A3/A5/A6/A7/B1/B7,,,,,3h[4:1]/7h[4:1],,,Cf/A1/E1/E2/E4/E7/B2/B3/B7/B8,,,,,
2h[4:1]/6h[4:1],,,Cf/A1/A3/A5/A7/B1/B3/B5/B7,,,,,1h[4:1]/7h[4:1],,,Cf/A4/A8/B4/B8,,1x,1x,1bx,
2h[16:3]/8,{16},1,{8}2,38,4,5,4x/6x,7-4[8:1],,3^8[8:1],,5,6h[4:1],,1b,,
{16}8,2,8,2,7,3,6,4,5,3,5,3,6,2,7,1,{8}8bx,8bx,8bx,8bx,{24}8bx,1bx,8bx,{16}1bx,,2bx/7bx,,,,
4b/5b,,,,4,5,4,,4,5,3,,3,4,3,,3,4,{8}2h[4:1],5,5h[4:1],3,3h[4:1],7,7,
4x/7x,,{16}5,4,5,,5,4,6,,6,5,6,,6,5,{8}7,7p4[8:3],4,4bx,,,,
2b/5b,,16,1bx/6bx,2,3,4,3bx/5bx,{16}2bx,1bx,{8}2bx,3bx/8bx,7bx,4bx-1[8:1]/6bx-1[8:1],5bx,,,
2x/8x,,28,2bx/8bx,7,6,4V28v5[2:1],5bx,6x,6x,6x,6x,7x,7x,4b/8h[4:1],,
A4f/E4/E5,,1/A6/E6/E7,,3-8[8:1],3,7-4[8:1],7,2-5[8:1],2,6-1-5[4:1],6,1,2,3,,
1/E6/B5/B6,,8/A3/E3/E4,,7-5[8:1],7,2-5-1[4:1],2,8b,,,37,3/7-3[8:1],28,3/7bx,,
1/E6/B5/B6,,8/A3/E3/E4,,7-4[8:1],4-8[8:1],3,2,3-8[8:1],3,7-4-8[4:1],7,3,2,1h[4:1],,
Cf,,28,28,3b,4b,5b,6b,E6f/E8/B6/B7,,C/D1/D2/A1/A2f/A3/B2/B3,,D6/D8/A5/A8/E7f/B5/B6/B7/B8,,3x/4x,,
1b/2b,{16}2,1,3,,45,,6,5,7,,12,,3,4,{8}2,78,56,34,2-5[8:1]/5,1,28,7,
46,{16}7,8,6,,34,,2,1,3,,48,,57,,3,4,3,,25,,2^5[8:1],1,,1,2,,6,,7,,
4b/8b,,2,1,3,,46,,7,8,6,,35,,2,1,{8}3,48,57,45,3-8[8:1]/4,2,34,5,
1x-4[8:1]/6x-1[8:1],,16,,1x/4x,{16},2x/7x,,,5x/8x,,5x/8x,,,C,,,3bx/8bx,,{4}3bx/8bxh[2:5],,
E5,E7,E1,E3,E5,E7,E1,E3,
{8}E5,E6,E7,E8,E1,E2,E3,E4,8xh[8:5]/E5,,1,1h[4:1],,,1b/8b,2b/7b,
3b-1[8:1]b*v5[8:1]b/6b,,3,,8,8v2[8:1]b*-6[8:1]b,,8,,5,5-3[8:1]b*v7[8:1]b,,5v2[8:1]*v8[8:1],,,,
1bxv3[8:1]b*-7[8:1]b,,1,,6,6-4[8:1]b*v8[8:1]b,,6,,3,3-1[8:1]b*v5[8:1]b,,3,,8b,,
1-3[8:1]b/7v1[8:1]b,,17,,4,4-2[8:1]b*v6[8:1]b,,4,,1,{4}1^3[8:1]/8^6[8:1],1-7-3-5[1:1]/8-2-6-4[1:1],,
,,,,4-8[8:1]/5-1[8:1],45,2b/7b,,
5,5,5,5,5/B3,5/B4,5/B5,3x/7x,
4,4,4/B5,4/B4,1bxh[8:3]/7bx,{8},8,8,1,27,36,
{4}4/5h[8:1],4/5h[8:1],3/5h[8:1],3/5h[8:1],5h[8:1]/B3,5h[8:1]/B4,5h[8:1]/B5,3x/7x,
4h[8:1]/6h[8:1],4h[8:1]/6h[8:1],3h[8:1]/5h[8:1],3h[8:1]/5h[8:1],{16}26,,26,,3,4,3,,6,5,6,,{4}3b/8b<4[4:1],
4>8[4:1],8<4[4:1],4>8[4:1],8<8[2:1],4,8<8[2:1],4,8<8[2:1],
B3,8<8[2:1],B5,8<8[2:1],B4,8,C,{16}17,,26,,
3h[16:3]/5,,,4,3,,25,,6h[16:3],,,5,6,,47,,2h[16:3],,,1,2,,38,,7h[16:3],,,8,7,,16,,
25,,36,,47,,6,5,,3,4,,25,,16,,8b,7b,8b,7b,8b,7b,8b,7b,8b-4[8:1],,1x/7x,,8b,,,,
2-5[8:1],,3,4,2,,8,,7-3[8:1],5,{8}6,1^4[8:1]/7,2,8^5[8:1],7,2-6[8:1],3,8x,8,17,26,
3/7-4[8:1],{16}6,5,7,,1,,2-5[8:1],4,3,,2,,6,,7,8,7,,16,,3,4,,6,5,,37,,1,,
2-5[8:1]/5,,3,4,2,,8,,7-3[8:1],5,{8}6,1^4[8:1]/7,2,8^5[8:1],7,2-6[8:1],3,8x,7,5,4,
3-5[8:1],3,7-1[8:1],7,2-6[8:1],2,8,8,4b/7b,{16}6,5,7,5,6,,1-5[8:1],8,2,7,1b,,,,
6-1[8:1],,7,8,6,,2,,3-7[8:1],4,{8}2,3/5^8[8:1],6,4^1[8:1],3,6-2[8:1],7,4x,3,1,28,
3/7-3[8:1],46,37,2,{16}1^4[8:1],8,2,,17,,6,,7,8,7,,16,,3,4,,7,5,,1x,,1b/8b,,
{24}2x,3,4,7x,6,5,{8}1b,8,17,17,26,26,3b-5[8:1],3,6x-2[8:1],6x,1b-5[8:1],1bx,5,6,
{16}7bx,8,7bx,8,5bx,4,5bx,4,1bx,2,6bx,5,7bx,8,4bx,3,2b/5b,,,4b/7b,{8},1b/2b,1bw5[8:1]b/2b,,Cf,,
3h[4:1]/7h[4:1],,,Cf/D3/D4/D7/D8/A2/A3/A4/A6/A7/A8/B2/B8,,,,,2h[4:1]/6h[4:1],,,Cf/A8/E1/E3/E6/E8/B1/B2/B6/B7,,,,,
3h[4:1]/7h[4:1],,,Cf/A2/A4/A6/A8/B2/B4/B6/B8,,,,,2h[4:1]/8h[4:1],,,Cf/A1/A5/B1/B5,,8x,8x,8bx,
1/7h[16:3],{16},8,{8}7,16,5,4,3x/5x,2-5[8:1],1,6^1[8:1],7,3,2w6[8:1],,2b,,
4v2[8:1]/8-2[8:1],,48,,15,1-3[8:1]/5v3[8:1],,15,,26,2-4[8:1]/6v4[8:1],,2v5[8:1]*v8[8:1]/6,,,,
{1},,E
Re:MASTER
最終更新:2026年09月19日 14:16