BASIC
ADVANCED
EXPERT
MASTER
(160)
{4}4x/5x,45,45,45,
{4}45,45,45,45,
{4}34,23,12,18,
{4}78,67,56,{16}5,4,5,4,
{4}5,24,45,57,
{4}45,24,45,57,
{4}45,13,45,68,
{16}5,4,{8}5,{16}2,4,{8}2,{16}7,5,{8}7,{16}1,8,1,8,
{16}2b-6[8:1]/7b,,,5-1[8:1],5,,,3-8[8:1],3,,,7-3[8:1],7,,,1,
{4}1-5[8:1],1x/8x,{8}56,8,34,1,
{16}2x/7x-3[8:1],,,4-8[8:1],4,,,6-1[8:1],6,,,2-6[8:1],2,,,8,
{4}8^3[8:1]*^5[8:1],8x,{8}24,3,57,6,
{16}2x-6[8:1]/4x,,,1-5[8:1],1,,,8-4[8:1],8,,,7-3[8:1],7,,,6<4[16:5],
{16}6,,,5,{4}5h[4:1],,{8}48,37,
{16}2/6-4[8:1],,,1-5[8:1],1,,,8-3[8:1],8,,,2-6[8:1],2,,,7,
{16}7h[4:1],,,5,5h[4:1],,,3,3h[4:1],,,1,1h[16:3],,,8,
{16}2b/7b-3[8:1],,,4-8[8:1],4,,,6-1[8:1],6,,,2-6[8:1],2,,,8,
{4}8-4[8:1],1x/8x,{8}34,1,56,8,
{16}2x-6[8:1]/7x,,,5-1[8:1],5,,,3-8[8:1],3,,,7-3[8:1],7,,,1,
{4}1^4[8:1]*^6[8:1],1x,{8}35,46,25,47,
{16}2-4[8:1]/6,,,8-6[8:1],8,,,1-5[8:1],1,,,6,6h[16:3],,,1-3[8:1],
{16}1,,,7-5[8:1],7,,,8-4[8:1],8,,,5,5,,,16,
{4}1-5[8:1]/6-8[8:1],1x/6x,3-1[8:1]/8-4[8:1],3x/8x,
{16}1b/5b,,,2x/6x,{4}2xpp8[4:1]/6xpp4[4:1],{2},
{16}3h[8:1],,4,3,4,,6h[8:1],,5,6,5,,3h[8:1],,4,3,4,,6h[8:1],,5,6,5,,3,4,2,,1x/5x,,,,6h[8:1],,5,6,5,,3h[8:1],,4,3,4,,6h[8:1],,5,6,5,,
3h[8:1],,4,3,4,,7,8,7,,1x/6x,,1x/6x,,2h[8:1],,4,3,4,,7h[8:1],,5,6,5,,2h[8:1],,4,3,4,,7h[8:1],,5,6,5,,3,4,2,,1x/5x,,,,7,5,6,,2,4,3,,5,4,6,3,7,2,8,1,
{16}2hx[8:1]/8hx[8:1],,,3hx[8:1]/7hx[8:1],,,4hx[8:1]/6hx[8:1],,,5hx[8:1],,,{32}3x,2x,1x,8x,7x,6x,5x,4x,{2}3x>4[4:13],B3,B2,B1,B8,B7,B6,B4/B5,6<5[4:13],B3,B1,E5,B7,C,E3,B5/B4,{4}4h[2:1]/5,C,5h[2:1],C,3h[2:1],B3/B4,6h[2:1],B6/B7,2h[2:1],B3/B2/E3,7h[2:1],B6/B7/E7,1h[2:1],C/B5/B4,8,3/6,1/8h[2:1],C,
7h[2:1],C,6h[2:1],E1/B1,5h[2:1],B6/B7,4h[2:1],E1/B1/B8,3h[2:1],E5/B4/B5,2h[2:1],E3/B2/B3,1h[4:1],8,Ch[1:1]/B4/B5/B1/B8,,,,,,,
{16}3h[16:3],,,4,3,,3h[16:3],,,4,3,,3h[16:3],,,4,3,,3h[16:3],,,4,3,,4/5,,4/5,,6h[16:3],,,
5,6,,6h[16:3],,,5,6,,6h[16:3],,,5,6,,6h[16:3],,,5,6,,4/5,,3/6,,{2}2-5[8:1]/7-4[8:1],{16}3/5,,4/6,,2,5,3,6,4,7,5,,3,4,2,,6,5,7,,3/4,,,4,3,,5,,3,5,4,,3/6,,,6,3,,5,,3b,5,4,,3b/5,,4,,6/5,,,5,6,,4,,6,4,5,,6/3,,,3,6,,4,,
6b,4,5,,6b/4,,5,,3/4,,,4,3,,5,,3,5,4,,3/6,,,6,3,,5,,3b,5,4,,3b/5,,4,,5/6,,6,5,6,,4/6,,6,4,6,,3/6,,6,3,6,,4/6,,6,4,6,,2x/7x,,,,
{16}1b,,,Cf/B4/B8,,,Cf/B3/B7,,,Cf/B2/B6,,,Cf/B1/B5,,,Cf/B4/B8,,,Cf/B3/B7,,,Cf/B2/B6,,,1x/8x,,,,
Cf/B5/B1,,,Cf/B6/B2,,,Cf/B7/B3,,,Cf/B8/B4,,,Cf/B5/B1,,,Cf/B6/B2,,,Cf/B7/B3,,,Cf/B8/B4,,,8x/1x,,,,
Cf/E4/E8,,,Cf/E3/E7,,,Cf/E2/E6,,,Cf/E1/E5,,,Cf/E4/E8,,,Cf/E3/E7,,,Cf/E2/E6,
,,Cf/E1/E5,,,8x,8x,8x,8x,{32}8x,7x,6x,5x,4x,3x,2x,1x,{16}8hx[4:1]/4x,,,,1x,1x,1x,1x,1x,,4x/5x,,3x/8x-4[16:1],,,2x-5[16:1]/8x,,,2x/7x-3[16:1],,,1xw5[16:1]/7x,,,1x,,,,
{16}3x/7x,,2,1,3,,7,8,6,,3,4,2,,6,5,7,,2,1,4,,7,8,5,,2/6,,3/7,,4/8,,1-5[8:1]/3x,,2,,1/8,,,,8-4[8:1]/6x,,7,,8/1,,,,3>5[4:1]/6,,,8,{2}8h[4:1],{16}3/7,,2/6,,1/5h[2:1],,{24}B8,B7,E7,{8},{24}B1,B2,E3,{8},5,2/6,3/7,4h[2:1]/8,{24}B1,B2,E3,{8},{24}B8,B7,E7,{8},4,{16}2,1,2,1,2-4[8:1],,,8-6[8:1],8,,,1-5[8:1],1,,,7,7h[4:3],,,,{24}E8,B7,B6,E6,,,E2,B2,B3,E4,,,E1,C,E5,,,,{4}2b/7b,{16}1x/6x,,7,8,6,,2,1,3,,6,5,7,,3,4,2,,7,8,5,,2,1,4,,7/3,,6/2,,5/1,,8w4[8:1]/6x,,7,,8,,,,1w5[8:1]/3x,,2,,1,,,,6<4[4:1]/3,,,1,{2}1h[4:1],{16}6/2,,7/3,,8/4h[2:1],,{24}E1,B1,B2,{8}E3,{24}E5,B5,B6,{8}E7,4,7/3,6/2,5h[2:1]/1,{24}E1,B8,B7,{8}E7,{24}E5,B4,B3,{8}E3,5,{16}7,8,7,8,7-5[8:1],,,1-3[8:1],1,,,8-4[8:1],8,,,2,2h[4:3],,,,{24}E2,B2,B3,E4,,,E8,B7,B6,E6,,,E1,C,E5,,,,{4}Cf/E3/E7,{16}1x/8x,,,2b>8[16:7]/7b<1[16:7],{4}2b/7b,,,{16}3x,4,2,,6x,5,7,,3x,4,2,5,1x,6,8,7,2x,1,3,8,4x,7,5,6,{24}8x,1,2,7x,6,5,1x,2,3,6x,5,4,Cf/B8/B1,E
Re:MASTER
- MASTER譜面を追加しました。修正等ありましたらよろしくお願いします。 -- Sugar (2026-06-08 21:42:51)
最終更新:2026年06月08日 21:42