アットウィキロゴ

単一指向性オーバーブルーム

アーティスト 葛城 華(CV:丸岡 和佳奈)

BPM BASIC ADVANCED EXPERT MASTER Re:MASTER
158 3 7 10 13 13+

EXPERT MASTER Re:MASTER
譜面制作者 ぴちネコ Redarrow はっぴー

BASIC


ADVANCED


EXPERT


MASTER

(158){2},,
4h[4:1]/6h[16:11],{16}5,,,4,,,3h[16:13]/5h[8:3],,,,,,,,,,4,,,5,,,3/6b,,
,1,8,,6,5,6,4,6,3,5,2,7,,,,3x/6x,3x/6x,,4x/7x,,2x/5x,,4x/5x,{8}4x-8[8:1]/5x-1[8:1],,,,
36,2,34,2,3/5h[16:3],{16},6h[16:3],,,7-4[8:1],,,1,1,,2,,3,,3h[16:3]/5,,,6h[16:3],,,4,,
36,,7,,56,,7,,4h[16:3]/6,,,3h[16:3],{8},2,2-5[8:1],8,7-4[8:1],1,2,1,2b/6b,,

3,3,5h[8:1],4,6h[8:1],5,6h[8:1],5,7h[8:1],6,7h[8:1],6,8-4[8:1],,1/8b,,
2-6[8:1],1,28,,7-3[8:1],8,17,,4,35,4,36,4-1[8:1]*-8[8:1],,,,
6,6,4h[8:1],5,3h[8:1],4,3h[8:1],4,2h[8:1],3,2h[8:1],3,1-5[8:1],,1b/8,,
7-3[8:1],8,17,,2-6[8:1],1,28,,4/5^8[8:1],,4^1[8:1]/5,,45,,3b/6b,,

8h[16:3],{16},7h[16:3],,,6,,6^3[8:1],,,,2,,,,1h[16:3],,,2h[16:3],,,3,,3^6[8:1],,,,7,,,,
8h[16:3],,,7h[16:3],,,6,,6^3[8:1],,,,2,,,,1h[16:3],,,2h[16:3],{8},3,34,,26,,
7,8,1,2,6h[8:1],{16}5,6,,4,5,,2,,1,,8,,7,,3h[8:1],,4,3,,5,4,,
5-1[8:1],,,4,5,,3,,4-8[8:1],,,5,4,,6,,{1}5>5[2:1]*<5[2:1],
{16}3b/6b,36,,1b/8b,1-5[16:1]/8-4[16:1],,27,,{32}1b/8b,Cf,{16},,,3b/6b,,,,

2/7h[16:3],,,8,7,,5,,28,,4,,17,,5,,2h[16:3]/4,,,1,2s6[4:1],,8,,2/7h[4:1],,,,,,7,,
18,,3,4,3,,6,5,6,,3,,25,,7,,1b/8h[16:3],,,6,{8}7b<2[4:1],2,1h[4:1]/7b,,,,
2/4h[4:1],1,3h[4:1],1,4h[4:1],1,2,35,6h[4:1],8,5h[4:1],8,6h[8:1],8,15,,
5^2[8:1]/8b,{32},,7x,6x,{8}5x,,1b/4^7[8:1],{32},,2x,3x,{4}4x,4-2[8:1]/5-1[8:1],4-8[8:1]/5-7[8:1],45,3b/7b,
{16}2h[16:3]/6,,,1,2,,4,,17,,5,,28,,4,,5/7h[16:3],,,8,7z3[4:1],,1,,2h[4:1]/7,,,,,,2,,
18,,6,5,6,,3,4,3,,6,,47,,2,,1h[16:3]/8b,,,3,2V46[4:1],,7,,{4}2b/8h[4:1],,
1pp3[8:1]*qq7[8:1],1,8pp2[8:1]*qq6[8:1],8,4v1[8:1]*v7[8:1],4,5v2[8:1]*v8[8:1],5,
{16}34,,3,4,3,4,3,4,2,5,2,5,{4}1-5[8:1],1/4b,8-4[8:1],5b/8,1,
{16}3b/8,,,1/6b,{8},2b/7,1^4[8:1]/8b^5[8:1],,18,,

2b/7b,,,,E4,{16},E5,,,E6,,E2,,,E1,,,E8,,B3/B4,,B7/B8,,B1/B2,,B5/B6,,
E2,,,E1,,,E8,,E4,,,E5,,,E6,,B1,B8,B2,B7,B3,B6,B4,B5,E2,E8,E4,E6,C,,,,
8h[16:3],,,6h[16:3],,,5,,4h[16:3],,,2h[16:3],,,1,,5h[16:3],,,7h[16:3],,,8,,3,,4,,6,,5,,
27,27,,16,16,,38,38,,1,8,2,7pp3[8:3]*qq3[8:3],3,{4}6,,,{16}1xh[8:1]/8xh[8:1],,,3xh[8:1]/6xh[8:1],{8},
45,36,2qq5[8:3]/7,,,,,,6h[8:3],{16}4,4,,,5,6,5,,47,4h[16:3]/7h[16:3],,,,,
5,6,5,6,4,7,4,7,5,6,5,6,4,7,3,8,2h[4:1],,6,,7h[4:1],,1,,2,8,3,7,46,,,,
25,,3,4,3,,6,5,6,,2,4,3,,7,5,6,,2,1,2,,7,8,7,,2,2h[16:3],{12},,,
8,3,3,8,4,4,8,5,5,8,6,6,{4}8>7[2:1],8h[2:1],,,
{16}3x/6x,3x/6x,,2x/5x,,4x/7x,,1x/8x,{2}1x-5[8:1]/8x-4[8:1],

5h[2:1]/7h[2:1],{16},,46,,,35,,,2xh[2:1]/4xh[2:1],,,,,,,,,,35,,,46,,,
{4}5x/6xh[4:1],B2,3xh[4:1]/4x,B7,5b-7[8:1],5b-3[8:1],5bw1[8:1],,
{8}3,3h[4:3],,B1,,B3,,B5,6,6h[4:3],,B8,,B6,,B4,
{4}Cfh[4:3],,,,1bs5[8:1]/8bz4[8:1],1b/8b,{16}2b/7b,,5,4,5,4,6,,

2h[16:3]/8,,,1,2,,4,,17,,5,,28,,4,,5/7h[16:3],,,8,7z3[4:1],,1,,2h[4:1]/7,,,,,,2,,
18,,6,5,6,,3,4,3,,6,,47,,2,,1h[16:3]/8b,,,3,{8}2b>7[4:1],7,2b/8h[4:1],,,,
5h[4:1]/7,8,6h[4:1],8,5h[4:1],8,7,46,3h[4:1],1,4h[4:1],1,3h[8:1],1,48,,
{16}3,4,3,4,2b/5b,,,,6,5,6,5,{4}4b/7b,4-1[8:1]/5-8[8:1],45,{16}36,,4,5,4,5,{8}3,
1-3[8:1]/8b,8,1-5[8:1]/7,7,1-3[8:1]/8,8,1-5[8:1]/7,7,1-3[8:1]/8,8,1<3[4:1]/7,7,18,,7,7,
1b/8-6[8:1],1,2/8-4[8:1],2,1,1,{4}2-5[8:1]/6-1[8:1],26,3-8[8:1]/7-4[8:1],37,{16}5,4,5,4,
{4}5qq3[8:1]*pp7[8:1],5,4qq2[8:1]*pp6[8:1],4,8v3[8:1]*v5[8:1],8,1v4[8:1]*v6[8:1],1,{16}12,,2,1,2,1,2,1,3,8,3,8,{4}4-8[8:1],
4x/6x,5-1[8:1],3x/5x,4-8[8:1],4x/6x,5,{16}27,,,1,8<4[8:1],,3,,
{4}8x/Cf,1>5[8:1],1x/Cf,8,{16}3b/8,,,1/6b,{8},2b/7,1b-5[8:1]/8-4[8:1],,,,

2x/7x,,34,2,3/5h[16:3],{16},6h[16:3],,,7^4[8:1],,,1,1,,2,,3,,3h[16:3]/5,,,6h[16:3],,,4,,
36,,7,,56,,7,,4h[16:3]/6,,,3h[16:3],,,2^5[8:1],,,8,{8}8,7,6,5^2[8:1],6,7,,
17,1,28,2,13,3,24,4,35,5,46,6,57,7,68,8,
78,78,56,56,34,34,12,12,{16}8,1,7,2,6,3,5,4,{6}8b,1b/6x,3x/8b,

2xh[8:3]/7xh[8:3],,,{48},,,,4x,,,,,,4x,,,,,6x,,,,,6x,,,,,,,{32}2x,,,2x,{48}8x,,,,,8x,,,,,1x,,,,,{16}1xh[2:1],,,,,5x,,,
6xh[48:23],,{48},,1x,,,,1x,,,,2x,,,,3x,,,4xh[48:91],{16},,,,7x,,,,,8x,,,,,,1x,{8},,,3x,
,,,5xh[32:35],,,,,3,3,3,{32},,,3,{2},
{48},,,,,{1}2b/7b,E

Re:MASTER

(158){4},,,{16}3,3,4,,
2h[8:3]/5h[8:3],,,,,,,,25,,,36,,,4h[4:1]/7,,,,6,6,5,,,,47,,,36,,,25,,
,3,3,4,2,6,5,7,4,,3x/6x,2x/7x,1x/8x,,,,1,8,,57,,45,,24,24,,{24}E5,E6,E7,{8}E8,,
3h[4:1],4,5<2[4:1],4,3h[16:3],,,45,{16},6,{8}5,7>4[4:1],7,1h[16:3],,,,
6h[4:1],5,4>7[4:1],5,6h[16:3],,,45,{16},3,{8}4,2-5[8:1],2,6-1[8:1],6,3h[4:5],,

4,4,5,5,4,4,5,5x,4xw8[8:1],4x,,,2v4[8:1]/6v8[8:1],,,,
3/7-3[8:1],2,17,1,2-6[8:1]/6,7,28,8,7-4[8:1],4-7[8:1],3/7-3[8:1],2,1-5[8:1],,1x/6h[2:3],,
5x,5x,4,4,5,5,4,4,5,5,5qq5[4:1],5,5-1[8:1],,,,
28,3,6,5,46,{16}6,5,,5,7h[8:5],,1-4[8:1],,,,1-5[8:1],,,,1,,7x,6x,5x,,,,

8^5[8:1],,,4,,,3,,3^6[8:1],,,7,,,8,,8^5[8:1],,,2,,,1,,1^4[8:1],,,5,,,6,,
6^1[8:1],,,4,,,3,,3^8[8:1],,,6,,,7,,7^2[8:1],,,4,,,3p6[8:1],,3h[4:1],,,,,,,,
36,,5,5,4,,3,3,4,,6,6,5,,4,4,5,,7,7,5,,2,2,4,,5,5,4-8[8:1],,3,,
24,,,4,5-1[8:1],,6,,57,,,5,4-8[8:1],,3,,{4}2/4>5[4:1],Cf,,36,
{16}1,8,,57,,,4/5^8[8:1],,24,,{24}5x/E3,E4,E5,{8}E6,,

18,{16}6,5,,3,4,,1-5[8:1],,5>1[8:1],,6,,7,,8,,7,7,5w1[8:1],,46,,,,,,2x/8x,,7x,,
1x,,2,4,3,,7,5,6,,3,,7,,7h[8:5],,{32}1b,2,3,4,,,,,1b,2,3,4,,,,,1b,2,3,4,5,6,7,8,{16}1,,,,
34,,5,5,4,,3,3,4^1[8:1]*^7[8:1],,35,,,,,,17,,6,6,5,,3,3,5h[2:1],,E3,,Cf/E5/E6/B4/B5/B6,,,,
1-5[8:1],,,8,1,,7,,8-4[8:1]/4,,,1,8,,2,,{4}2-8[8:1]/3-8[8:1],2-6[8:1]/3-6[8:1],2x/3x,8b,
{16}17,,3,4,,6,5,,8-4[8:1],,4V68[8:1],,3,,2,,1,,2,2,3-6[8:1]/7-2[8:1],,26,,37,,,,15,,7x,,
8x,,7,5,6,,2,4,3,,5,,6,,4,,37,,6,5,,3,4,,Cf/E3/E7/B3/B6,,,,7,,1,1,
{8}2v5[8:1]/8v5[8:1],,2^5[8:1]/8^5[8:1],,28,,8,2,1v4[8:1]/7v4[8:1],,1^4[8:1]/7^4[8:1],,17,,7,1,
28,{16}3,3,5,5,4,4,6,6,3,5,4-1[8:1],,,,{24}4/E6,B6,B7,E8,,,4/5-8[8:1],,,,,,5/E4,B3,B2,{8}E2,4,4,
57,{16},18,,,2/4^1[8:1],,5,,{24}4x/E7,E6,E5,{8}E4,,

1h[2:3]/5,,,,,4,,4,,4,,4,5,5,4,4,
8,8h[4:3],,5,,5,,5,{16}4,4,5,5,3,3,6,6,8,8,1,1,3,3,5,,
26,,7,5,,5,8,,37,,2,4,,4,1,,26,,7,5,,5,8,,47,,25,,37,,,,
6,57,,3,24,,5,46,,3,3,4,2,7,5,6,3<8[16:3],4,1,,3,,,4x,,,8h[16:3],,,6h[16:3],{8},
5-8[8:1],4,35,2-4[8:1],2,8h[4:1],,{16}5,5-2[8:1],6,,,7,,,8,8v1[8:1],1,,,4h[16:5],,,,,
5,5,2,2,4,4,5,5,7,7,1,1,6,5,4,,6,,57,,3,,24,,3,4,5,6,3,4,5,6,
3h[4:1],,4,,6h[4:1],,E6,E5,2h[4:1],,E3,E4,7h[4:1],,E7,E6,1h[4:1],,E2,E3,8h[4:1],,E8,E7,1h[2:1],,E1,Cf,{12},,,
7-3[8:1],7,7,8-4[8:1],8,8,1-5[8:1],1,1,2-6[8:1],2,2,{4}8<1[4:1],Cf,,,
{16}45,45,,18,,36,,27,{8}2-5[8:1]/7-4[8:1],,,,

2h[4:1]/5,{24}E5,E6,E7,{16}E8,,,,,,28,,,46,,,3h[2:1]/7,,{24}E7,E6,E5,{8}E4,,8^3[8:1]*^5[8:1],8,,,
3/5h[2:1],{24}E3,E4,E5,{16}E6,,,,1,,,6,6,4,5,,{4}3/7<3[4:1],3>7[4:1],Cf,,
{16}6,6,5,,6,6,5,,6,6,5,,6,6,5,,7,7,5,,7,7,5,,7,7,4,5,3,5,2,5,
{1}1b,{24}1b/8b,2x/7x,3x/6x,4x/5x,,,1b/8b,2x/7x,3x/6x,{16}4x/5x,,1b/8b,,4,4,6,3,7,2,

8b,,3,4,,6,5,,8-4[8:1],,4<8[8:1],,3,,2,,1,,2,2,4w8[8:1],,35,,,,,,1x/7x,,2x,,
8x,,7,5,6,,2,4,3,,6,,7,,7h[8:5],,{32}1b,2,3,4,,,,,1b,2,3,4,,,,,1b,2,3,4,5,6,7,8,{16}1,,,,
56,,4,4,5,,6,6,5^2[8:1]*^8[8:1],,46,,,,,,28,,3,3,4,,6,6,4h[2:1],,E7,,Cf/E4/E5/B3/B4/B5,,,,
8-4[8:1],,1,1,8,,2,,1-5[8:1]/5,,8,8,1,,7,,{4}6-1[8:1]/7-1[8:1],6-3[8:1]/7-3[8:1],6x/7x,1b,
{16}28,,6,4,5,3,4,,1-5[8:1],,5V31[8:1],,6,,7,,8,,7,7,5-8[8:1],,4,,3,,3,,2,,1x,,
1x,,6,5,8,,3,4,{8}1,6,2-4[8:1]/7-5[8:1],18,2x/7x,,1x-4[8:1]/8x-5[8:1],,{32}1x/8x,E1,Cf,E5,,,,,{4},
3v1[8:1]/7v5[8:1],,2v4[8:1]/6v8[8:1],,3/7^2[4:1],2^5[4:1],5^8[4:1],8>7[8:3],Cf,,,3-8[8:1]/6,
{24}3/E5,B4,B3,E3,,,6-1[8:1],,,,,,6/E5,B5,B6,E7,,,3-8[8:1],,,,,,3/E5,B4,B3,{16}E3,,7h[4:1],,,,2b,,,16,1b/6-3[8:1],,4,,
{24}6/E3,B2,B1,E1,,,3-6[8:1],,,,,,3/E7,B7,B8,{16}E1,,6,5,4,,45,,,36,{8},27,27,C,E1,E5,

2b/7b,,4>7[4:1]/6,5,6h[16:3],,,45,{16},3,{8}4,2<5[4:1],2,8h[16:3],,,3,
3h[4:1],4,5<2[4:1],4,3h[16:3],,,45,{16},6,{8}5,7-4[8:1],7,3,3,26,,
18,7,46,3,25,1,8,7,46,7,18,2,35,6,57,8,
1-3[8:1],8-4[8:1],1-5[8:1],8-6[8:1],1-3[8:1],8-4[8:1],1,8,2,2,{32}8,7,6,5,4,3,2,1,{6}8,56,34,

2b/5b,,,{48},,,,6,,,,,,5,,,,,7,,,,,3,,,,,,,4,,,,2,,,,8,,,,,8,,,,1,{16},1>5[4:1],,,,,7,,,
8xh[4:1],,{24},5,4,3,2,1,8,7,6,5,,,{16},,7,,7,,,46,,,3,4,5,6x,,,8,7,6,5,4,3,
{8},4z8[8:3]/5s1[8:3],,,,,,,1h[16:1]/8h[16:1],2h[16:1]/7h[16:1],3h[16:1]/6h[16:1],{32},,,4qq5[96:37]/5h[32:9],{2},
{48},,,,,{1}8b,E

名前:
コメント:

タグ:

+ タグ編集
  • タグ:
最終更新:2026年08月08日 17:06