アットウィキロゴ

おても☆Yan

アーティスト 光吉猛修

BPM EASY BASIC ADVANCED EXPERT MASTER Re:MASTER
90 1 4 7 10 13 -

EXPERT MASTER Re:MASTER
譜面制作者 rioN 譜面-100号 -

EASY


BASIC


ADVANCED


EXPERT


MASTER

(90)
{1},{8},{24}18,,1,8,,,18,,,,,,18,,1,8,,,18,,,
8,,8,7,,7,8,,,2,,,1,,1,2,,2,1,,,8,,,
7,,7,6,,6,7,,,1,,,2,,2,3,,3,2,,,7,,8,
16,,,8,,8,2,,,2b,,1b,{2}3b/8b,

{24}5,,,,,4,3,,,,,,4,,,,,5,6,,,,,,
5,,5,4,,4,3,,,3,,,4,,4,5,,5,6,,,6,,,
5,,4,5,,4,7b,,,2b/5b,,,{2}4b/7b,
{24}7h,,1h,6h,,5h,2h,,8h,3h,,4h,6h,,5h,4h,,,3h,,,,,,

5,,6,,,6,7,,,7,,8,4,,3,,,3,2,,2,1,,,
7,,8,,,8,2,,2,1,,1,6b,,,3b/8b,,,1b/6b,,,,,,
1h,,2h,8h,,1h,8h,,7h,2h,,8h,1h,,2h,8h,,1h,7h,,,,,,

2,,,5,,5,7,,,4,,,6,,,1,,1,3,,,8,,,
,,1,2,,3,4,,5,6,,7,8b,,,2b/6b,,,4b/8b,,,,,,
1h,,,2h,,3h,8h,,,7h,,6h,3h,,,4h,,5h,6h,,,,,3,

4,,,3,,1,5,,,6,,8,4,,,7b,,2b,,,,6,,5,
6,,,8,,,5,,,3,,4,3,,,1,,4,5,,5,4,,4,5,{12},,,,,
{24}8h,7h,,,,,1h,2h,,,,,5h,6h,,4h,5h,,3h,4h,,,,,,
2h,,2h,1h,,1h,8h,,8h,7h,,7h,8h,,1h,8h,,2h,7h,,,,,,

1,,1,2,,2,1,,,7,,,8,,8,7,,7,8,,,1,,,
2,,2,3,,3,2,,,8,,,7,,7,6,,6,7,,,2,,1,
38,,,1,,1,8,,,7b,,8b,1b/6b,,,,,3,{2}3p6[2:1],

2^7[2:1],6q3[2:1],7^2[2:1],3>6[2:1],{8}2b,1b,8b,,4,,

{24}7,,7,8,,8,1,,,1,,8,17,,1,28,,8,17,,,,,,
3,,3,4,,4,5,,,5,,4,53,,5,46,,4,35,,,,,,
7,,7,8,,8,1,,7,6,,4,,,,2,,1,8,,2,3,,5,
3,,4,3,,4,8,,,7,,4,6,,5,6,,5,1,,,12,,18,

{8}78,1,23,1,67,5,34,5,{24}6,,5,6,,5,3,,,4,,4,3,,4,3,,4,6,,,87,,81,
{8}21,8,76,8,32,4,65,4,{24}3,,3,6,,6,4,,,5,,36,
45,,45,36,,36,{4}4>5[4:1]/5p4[4:1],,,

{24}4,,,,,2,5,,,,,,5,,,,,7,{8}4,,34,25,65,74,21,38,78,61,
{4}3/7-2[8:1],7/3-6[8:1],7s3[4:1],3>6[4:1],,,

{24}56,,56,47,,47,56,,,36,,,43,,43,52,,52,43,,,,,,
52,,52,43,,43,52,,,45,,,47,,47,56,,56,47,,,,,,
56,,56,47,,47,56,,56,47,,,43,,43,52,,52,{4}4<4[4:1]/3q5[4:1],,,

{24}52,,52,43,,43,62,,62,54,,54,73,,73,65,,65,74,,,,,,
47,,47,56,,56,37,,37,45,,45,26,,26,34,,34,25,,2,1,,1,{1}8b,,,,E

Re:MASTER


  • MASTER譜面を追加しました。修正等ありましたらよろしくお願いします。 -- けもがみ (2026-04-09 23:28:50)
名前:
コメント:

タグ:

+ タグ編集
  • タグ:
最終更新:2026年10月04日 18:19