| アーティスト |
Kai「Wonderland Wars」 |
EASY
BASIC
ADVANCED
EXPERT
MASTER
(120)
{32}1,2,3,4,5,6,7,8,1,2,3,4,5,6,7,8,{4}15,3qq7[4:7]/7qq3[4:7],{1}3b/7b,,
{16}2,1,3,24,,56,,17,,3,4,2,5,1,6,8,7^2[32:3],,,7,,,3,4,3^6[32:3],,,3,,,7,8,
7,8,6,75,,43,,82,,6,5,7,4,8,3,1,2^7[32:3],,,2,,,6,5,6^3[32:3],,,6,,,2,1,
2,1,3,24,,56,,17,,4,5,3,6,2,7,1,28,,,16,,,4b/8b,,35,,,47,,,1b/5b,,
7,8,6,75,,43,,82,,6,2,8,1,7,3,5,46,,,25,,,3,7,1,,,,5,4b,,,
4h[4:1],,,,5,4,3,2,1,,,,48,,1,8,{4}1-4[32:3],1pp6[4:1],1,8b,
8h[4:1],{16}6,,6,5,6h[16:3],,,4h[16:3],,,3,,1h[4:1],,,,8,,7,2,8,1,7,2,6,3,5,4,
5h[4:1],,,,4,5,6,7,8,,,,51,,8,1,{4}8-5[32:3],8qq3[4:1],8,1b,
1h[4:1],{16}3,,3,4,3h[16:3],,,5h[16:3],,,6,,8,3,5,2b/6b,,3b/7b,,1b/5b,{4},45,
{16}8p4[32:3],,,1^4[32:3],,,1,,8p4[32:3],,,1^4[32:3],,,1,,
7p3[32:3],,,2^5[32:3],,,2,,7p3[32:3],,,2^5[32:3],,,2,,
6q2[32:3],,,1^4[32:3],,,1,,6q2[32:3],,,1^4[32:3],,,1,,
8^5[32:3],,,4^1[32:3],,,4,,8,,,,3b/4b,,5b/6b,,
4p8[32:3],,,5^8[32:3],,,5,,4p8[32:3],,,5^8[32:3],,,5,,
3p7[32:3],,,6^1[32:3],,,6,,3p7[32:3],,,6^1[32:3],,,6,,
2q6[32:3],,,5^8[32:3],,,5,,2q6[32:3],,,5^8[32:3],,,5,,
4^1[32:3],,,8^5[32:3],,,8,,4,,,,2b/1b,,8b/7b,,
15,,{24}15,26,37,{16}48,,4,,6,,2,,8,3,5,,
{4}1q5[32:3]/5q1[32:3],1^6[32:3]/5^2[32:3],1v4[32:3]/5v8[32:3],1b/5b,
8p4[32:3]/4p8[32:3],8^3[32:3]/4^7[32:3],8v5[32:3]/4v1[32:3],8b/4b,
{16}1,8,2,7,3,6,4,5,4,5,3,6,2,7,1,8,1^4[16:1],,,,{64}8b,7b,6b,5b,{16},,,15,26,37,48,,26,,,
2-5[16:1],1,2,1,2,,7,8,7-4[16:1],8,7,8,7,,3,5,3^8[16:1],,,,{64}38,7,6,5,{16},,,2,6,4,8,,26,,,
7-4[16:1],8,7,8,7,,2,1,2-5[16:1],1,2,1,2,,6,4,6^1[16:1],,,,{64}61,2,3,4,{16},,,2,6,4,8,,26,,,
2,1,2,1,38,,6,5,7,8,7,8,16,,3,4,2b/5b,,,4b/7b,,,2b/6b,,4b/8b,,,,4,6,2,8,
1,1,2,2,3,3,4,4,5,5,6,6,7,7,8,8,18,,,,{64}1b/8b,27,36,45,{16},,,84,73,62,51,,73,,,
2^5[16:1],1,2,1,2b,,6,5,7^4[16:1],8,7,8,7,,1,8,2^5[16:1],,,,{64}25,6,7,8,{16},,,2,6,4,8,,26,,,
7^4[16:1],8,7,8,7b,,3,4,2^5[16:1],1,2,1,2,,8,1,7^4[16:1],,,,{64}74,3,2,1,{16},,,7,3,5,1,,73,,,
3,4,3,4,2b/5b,,7,8,6,5,6,5,47,,2,1,3b/8b,,,1b/6b,,,3b/7b,,1b/5b,,,,5,3,7,1,
8,8,7,7,6b,6,5,5,4,4,3,3,2,2,1,1,81,,,,{64}8b/1b,72,63,54,{16},,,5,5,3,3,7,7,1,1,
{32}8,7,6,5,4,3,2,1,8,7,6,5,4,3,2,1,{4}8b/4b,2b/6b,
{16}7b,8,6,57,,34,,28,,6,5,7,4,8,3,1,2h[8:1],,4,15,,,6,5,7h[8:1],,1,26,,,4,5,
2,1,3,42,,65,,71,,3,4,2,5,1,6,8,17,,,38,,,16,,{4}5b/7b,7b-3[32:3]/8b-4[32:3],
{1}7b<8[4:3]/8b>7[4:3],,,,E
Re:MASTER
- MASTER譜面を追加しました。修正等ありましたらよろしくお願いします。 -- けもがみ (2026-04-10 08:48:12)
最終更新:2026年10月04日 09:40