アットウィキロゴ

RIFFRAIN

アーティスト 夏代孝明

BPM BASIC ADVANCED EXPERT MASTER Re:MASTER
122 3 6 9+ 13 -

EXPERT MASTER Re:MASTER
譜面制作者 畳返し はっぴー -

BASIC


ADVANCED


EXPERT


MASTER

(122){1},
{4}5h[4:3],{48}E4,A4,,,,,{8},,,{48}E4,A4,,,,,{8},6h[4:3],,{48}E4,A4,,,,,{8},,,{48}E4,A4,,,,,{8},
7h[4:3],,{48}E4,A4,,,,,{8},,,{48}E4,A4,,,,,{8},8h[4:3],,{48}E4,A4,,,,,{8},,,{48}E4,A4,,,,,{8},
8h[4:3],,{48}E4,A4,,,,,{8},,,{48}E4,A4,,,,,{8},7h[4:3],,{48}E4,A4,,,,,{8},,,{48}E4,A4,,,,,{8},
6h[4:3],,{48}E4,A4,,,,,{8},,,{48}E4,A4,,,,,{8},5,,{48}5-8[4:1]/E4,A4,,,,,{8},,,{48}E4,A4,,,,,{8},
3,,24,,5,5,46,,3^6[8:1],,7p3[8:1],,2,2,24,,
6,,57,,4,4,35,,6^1[8:1],,2q6[8:1],,7,7,57,,
3,,12,,8,8,17,,2^5[8:1],,8p4[8:1],,3h[4:1],,4,4,
5,4-8[8:1]/6,4h[4:1]/6,,,3,3^5[8:1],,,,7,48,4^1[8:1]/8^5[8:1],,,,

{1}1bh[2:5],,
{4}8h[2:1],,,8qq8[4:1],{8}3,2,1pp1[4:1],1,6,7,8b,8,

2-6[8:1],5,2^5[8:1]/6^1[8:1],,26,,48,37,26,{16}3,4,,6,5,,8qq8[4:1],,,,4,,4,,
4,,2,1,,7,{8}8,56,4^1[8:1]/5,34,5h[4:1],,8v3[8:1]*-5[8:1],8,,,4^1[8:1]*^7[8:1],4,,
,3v8[8:1]/5^8[8:1],24,,,8pp2[8:1]*qq6[8:1],8,,,1v4[8:1]/7^4[8:1],28,,,26,2-7[8:1]/6-3[8:1],,
26,,26,,4^1[8:1]/8^5[8:1],,4v6[4:1]b/8v2[4:1]b,,,,,,37,{24}1,8,1,{8}8,27,
3^6[8:1],6,7,7h[8:1],5,5h[8:1],3^8[8:1],7h[8:5],3^6[8:1],,3,,1b,,5,5,
6^3[8:1],3,2,2h[8:1],4,4h[8:1],6-1[8:1],2h[4:3],6-3[8:1],,6,,,1,8,8^5[8:1],
,5,4,3h[4:1],,6,{4}7-5[8:1],1-3[8:1]/7,1/8^5[8:1],1^4[8:1]/8,1/8-4[8:1],

3/8b,3,3,{24}3,4,5,{16}6,,3,,,5,3,,4,,34,,,,3,2,1,,
3,,,5,3,,4,,34,,,,{24}3,4,5,{16}6,,3,,,5,3,,4,,{12}14,2,3,4,5,6,

{16}7h[16:3],,,6h[16:3],,,5,,5^8[8:1],,,,4,,4,,8h[16:3],,,7h[16:3],,,6,,6-8[8:1],,,,1,,,,
2h[16:3],,,3h[16:3],,,4,,4^1[8:1],,,,5,,5,,1h[16:3],,,2h[16:3],,,3,,34,,,,25,,,,
3,4,3,4,E3,E5,E2,E6,3,4,3,4,E3,E5,E2,E6,3,4,3,4,E3,E5,E2,E6,E1,,,,46,,,,
6,5,6,5,E7,E5,E8,E4,6,5,6,5,E7,E5,E8,E4,6,5,6,5,E7,E5,E8,E4,{4}E1,3/5^8[4:1],

4,5^2[4:1],8,8^5[4:1],3,{8},2,2h[4:3],,4-8[4:1],,
,,,{16}1,1,1,1,1,1,{8}1^4[8:1]*^6[8:1],,1x,,5-2[8:1]b*-8[8:1]b,,5x,,2bx/8bx-4[8:1],,

3-5[8:1]/8,1,3/7-3[8:1],8,1-5[8:1]/7,2,1/6-8[8:1],7,4^1[8:1]/6,5,4/8w4[8:1],7,8x,,2-6[8:1],1,
2/8^5[8:1],7,1^3[8:1]/8,2,1/4-8[8:1],5,3-7[8:1]/4,2,3/8-4[8:1],1,28,3,15,,7^4[8:1]b,3,
2-6[8:1]b/7,1,2/8^3[8:1]b*^5[8:1]b,7,,,2^5[8:1],6,2/7-3[8:1],8,1v4[8:1]*v6[8:1]/7,2,,,37,,
1h[4:1],E4,7h[4:1],B5,3h[4:1],B4,5h[4:1],E5,4h[2:1],,,,5,{16}36,45,{8}4^1[8:1]b/5^8[8:1]b,27,
4b/5b,,2b/7b,,3-1[8:1]/5,4,3/6-4[8:1],7,1^4[8:1]/6,8,1/5-1[8:1]*-7[8:1],6,5,,8-4[8:1],7,
3-1[8:1]/8,2,3/5-7[8:1],6,1-5[8:1]/5,2,1/7-2[8:1],8,3-6[8:1],4,3/7^2[8:1],8,4,5,5v2[8:1]*v8[8:1],,
,,1,2h[4:1]/8h[4:1],{4},1-3[8:1],1-7[8:1],1-4[8:1],1-6[8:1],1-5[8:1]b,

{1}1/6h[4:3],6h[4:3],
{16}4,,,4,,,35,,,,,,{24}A3,E4,E5,{16}A5,,6,,,6,,,46,,,,,,E6,E5,E4,,
5,,,5,{8},46,,,{24}A6,E6,E5,{16}A4,,3,,,3,,,35,,,,,,E4,E5,E6,,
4,,,4,{8},35,,,{24}A3,E4,E5,{16}A5,,6,,,6,,,{1}4q5[8:3]/6,,E

Re:MASTER


名前:
コメント:

タグ:

+ タグ編集
  • タグ:
最終更新:2026年04月12日 14:28