アットウィキロゴ

Supersonic Generation

アーティスト Massive New Krew

BPM BASIC ADVANCED EXPERT MASTER Re:MASTER
155 4 8 11+ 13+ -

EXPERT MASTER Re:MASTER
譜面制作者 鳩ホルダー Luxizhel -

BASIC


ADVANCED


EXPERT


MASTER

(155)
{1},

{1}4h[4:3]/6h[4:3],
{16}B2,B8,B4,B6,E2,E8,E4,E6,{2}Ch[4:1],
{1}2h[4:3]/8h[4:3],
{4}7/B3/E3/E4,1/B6/E6/E7,{8}8,8,17,3,
{1}2h[4:3]/4h[4:3],
{16}3,4,3,4,3,4,3,4,D3,A2,D2,A1,D5,A5,D6,A6,
{2}1xh[2:1]/7xh[2:1],{4},{16}2,8,2,8,
{8}2b,{16}3,4,{8}3,{16}6,5,{8}6,{16}4,5,{4}36,

{4}5/7pp3[2:1],5,5,5,
{4}3>5[2:1]/5,5,4,3,
{4}2v5q1[2:1]/4,4,4,4,
{4}1qq3[2:1]/4,4,5,5,
{8}47,{16}6,6,{8}5,{16}2,2,{8}4,{16}6,6,{8}5,47,
{8}56,{16}3,3,{8}4,{16}7,7,{8}5,{16}3,3,{8}4,25,
{8}46,46,5,5,{16}4,3,2,1,8,7,6,5,
{2}4<3[8:3],{4},45,

{8}18,{16}3,4,{8}2-4[8:1],1-5[8:1],2-6[8:1],1,2,8,
{8}57,{16}6,5,{8}7,{16}3,4,{8}2,78,{4}16,
{8}34,{16}6,5,{8}7-5[8:1],8-4[8:1],7-3[8:1],8,7,1,
{8}24,{16}3,4,{8}3,{16}2,1,{8}2,38,{4}38,
{8}56,{16}3,4,{8}2^5[8:1],1-5[8:1],2-6[8:1],1,2,7,
{8}57,{16}3,4,{8}2,{16}7,5,{8}7,46,{4}4/6-3[8:1],
{8}1-5[8:1],1,8,8,{16}2,7,2,7,1,8,1,8,
{8}E2,E3,E8,E7,E4,E5,{4}C,

{4}1-4[8:1]/8-5[8:1],1b/8b,3-6[8:1]/7-2[8:1],37,
{8}3^6[8:1]/8,12,3,8,7^2[8:1],6,{4}47,
{8}2q6[8:1]/8,1,28,7,7p3[8:1],6,78,1,
{8}2^5[8:1],1,28,7,56,78,{4}16,
{8}5b/7b,6,4b/5b,3,2^7[8:1]/4,3,{4}25,
{8}6^3[8:1]/8,7,68,1,2-6[8:1],3,{4}12,
{12}8,5,6,1,4,3,7,5,6,2,4,3,
{12}6,7,8,3,2,1,5,6,7,{4}1-5[8:1]/8,
{2}1b/4bh[8:7],{4},{8},{16}E6f,B5f,
{16}B4f,E4f,{8},{4},{2},

{4}3V17-5V71-3[2:3],{32}B5,E5,,,,,,,{4},{32}B4,E5,,,,,,,
{4},{32}B5,E5,,,,,,,{4},{32}B4,E5,,,,,,,
{4}6V82-4V28-6[2:3],{32}B4,E5,,,,,,,{4},{32}B5,E5,,,,,,,
{4},{32}B4,E5,,,,,,,{4},{32}B5,E5,,,,,,,
{4}3qq8[2:1],A7/B7,A6/B6,A5/B5,
{4}4pp7[2:1],D1/E1,D2/E2,D3/E3,
{8}28,28,37,37,{16}2,6,1,7,{4}8pp3[2:1]*qq5[2:1],
{2},{4},2x/6x,

{8}7bx-3[8:1]/8bx,6,78,1,1,28,{16}8,2,6,4,
{8}7-4[8:1],3-8[8:1],7,3b,,78,1-5[8:1]/6,2,
{8}1/6-1[8:1],7,46,2-4[8:1],,28,{16}7,7,5,6,
{8}4^1[8:1],8^5[8:1],4,8,,24,{16}3,4,{8}2,
{8}18,1,12,2,23,3,34,4,
{8}45,5,56,6,67,7,78,8,
{8}18,{16}2,2,{8}1x/3x,{16}7,7,{8}6x/8x,{16}4,5,3,6,2,7,
{4}1b-3[8:1]/8b-6[8:1],1b-5[8:1]/8b-4[8:1],1b/8b,27,

{8}34,5,34,2,{4}17,{16}6,6,1,1,
{8}78,6,78,1,{4}24,{16}45,45,45,45,
{8}45,3,12,8,{4}57,{16}6,6,4,4,
{8}56,7,5p2[4:1]/6,4,{2},
{16}3,4,{8}3,25,{16}7,7,5-2[8:1]*-8[8:1],6,{8}4,{4},
{16}6,5,{8}6,47,{16}3,3,4-7[8:1]*v1[8:1],3,{8}5,{4},
{24}2/8h[8:1],3,4,{8}5,{24}1h[8:1]/7,6,5,{8}4,{32}2/8,3,4,5,6,7,8,1,2,3,4,5,6,7,8,1,
{2}2/Cf,{4},1b-5[8:1]/8b,

{4}1/7x-2[8:1],3x-6[8:1]/7,{8}3/8x-4[8:1],7,2x-8[8:1]/8,3,
{4}2-5[8:1]/7x-4[8:1],2x/7x-1[8:1],{8}7b-5[8:1],3bv8[8:1],7bv4[8:1],3b,
{4}7x^2[8:1],3x^6[8:1]/7,{8}3/8x-4[8:1],7,1x/8,{16}2,2,
{8}2x-6[8:1],5,2/7x-3[8:1],8,{4}2x/7,{8}1x,1x,
{4}2x-7[8:1]/8,2/6x-3[8:1],{8}1x-4[8:1]/6,2,1/7x-3[8:1],8,
{8}7b^4[8:1],8^3[8:1],7b,8b,,1b/5b,{4},
{8}36,{16}3,4,{8}2b/5,{16}6,5,{8}4/7b,{24}1,8,1,{16}7,2,6,3,
{4}4-2[8:1]/5-1[8:1],4-8[8:1]/5-7[8:1],45,16,

{8}1b/8b-4[8:1],7,3b-8[8:1]/8,2,3/5b^8[8:1],4,2b-5[8:1]/5,3,
{8}2/7b-3-8[4:1]b,6,7b,5,,56,45,34,
{8}1b/2b-6[8:1],3,12,8b^3[8:1]*^5[8:1],,8b-4[8:1],,8b,
{4}1h[8:3],{24},,,A2/A8,A3/A7,A4/A6,{4}A5f,{16}3,4,3,4,
{8}2b-5[8:1]/5,1b,2/6b-1[8:1],7b,26,3bx,{32}28,3,4,5,6,7,8,1,
{8}2bx-6[8:1]b,8bx-4[8:1]b,2b,8b,,3b/7b,,12,
{8}1b/2b^5[8:1],38,{24}1/2bv5[8:1],8,7,{8}6bx-1[8:1],2,6b,3,{16}2,1,
{8}2b,3b/4b,5b/6b,7b/8b,{32}2b,3,4x,5,8b,7,6x,5,1b-5[8:1]b,2,3x,4,7b,6,5x,4,
{16}1b,Cf,{8},{4},{2},
E

Re:MASTER


名前:
コメント:

タグ:

+ タグ編集
  • タグ:
最終更新:2026年07月01日 19:58