アットウィキロゴ

No Limit RED Force

アーティスト 曲:本多友紀(Arte Refact)/歌:オンゲキシューターズ

BPM BASIC ADVANCED EXPERT MASTER Re:MASTER
146 2 7 9+ 12+ -

EXPERT MASTER Re:MASTER
譜面制作者 翠楼屋 小鳥遊さん -

BASIC


ADVANCED


EXPERT


MASTER

(146)
{1}4-1[2:1],5-8[2:1],
{2}4-1[2:1],,5h[2:1],4,
{1}3h[4:3]/4-8[2:1],5-1[2:1]/6h[4:3],
{2}3h[4:1]/4h[4:1],{16}7h[16:3],,,6h[16:3],,,{8}5,4^1[2:1]/5^8[2:1],,,,,,,,
{16}35,,6,4,6,,3,5,3,,,,{8}1b/8b,,36,7^4[8:1],8,1,,3>8[8:1],4,5,
{8},7p6[8:3],8,1,,,3,4,5,6>3[8:1],7,8,,2^7[8:1],3,4,
{8},5-1[8:1],6,7,,,{16}4,5,4,5,3,,{8}2>5[8:1],1,8,,6<1[8:1],5,4,
{8},2q3[8:3],1,8,,,6,,B3/B4/7hx[4:1],,,B5/B6/2hx[4:1],,,B4/B5/8hx[4:1],,
{16}2,1,3,1,,,7,8,6,8,,,{8}2b/7b,,3,{16}3,5,,5,4,,,,{8}6,56,,
{16}7h[16:3],,,8<3[16:5],,,{8}6h[8:3],,,,,2,{16}2,4,,4,3,,,,{8}6,56,,
{16}8h[16:3],,,7h[16:3],,,{8}6,5,,47,,6,{16}6,4,,4,5,,,,{8}3,34,,
{16}2h[16:3],,,1>6[16:5],,,{8}3h[8:3],,,,3,3-5[8:1],,,7,{16}7h[16:3],,,6h[16:3],,,5,,
{8}45,,,18,3b/6b,,,4,3x/5x,,2/4,3,{16}4/5h[16:3],,,6h[16:3],,,7,,
{8}8<5[4:1],,3,2,1>4[4:1],,6,7,8,,57,6,{16}5/4h[16:3],,,3h[16:3],,,2,,
{4}1-5[4:1],,6,5,4/6h[2:1],,B5/B6,,
{8}4/3h[2:1],,,,B3/B4,,,8,{16}3x/7x,,,2x/6x,,,1x/5x,,2x/6x,,,3x/7x,,,4x/8x,,
{4}2b/6b,4^2[8:1]/5^7[8:1],4-8[8:1]/5-1[8:1],Cf,{16}8x/7x-3[8:1],,,1,7,,2,,4/3-7[8:1],,,5,3,,6,,
{16}8/7-3[8:1],,,1,7,,{8}2,1b/5b,,7,{16}2,1,3-7[8:1],,,,35,,,,8/7-3[8:1],,,1,7,,2,,
{16}4/3-7[8:1],,,5,3,,{8}6,1b/5b,,8,{16}2,1,2>5[8:1],,,1,2,,8,,7<4[8:1],,,8,7,,1,,
{8}25,,78,1,{16}24,,,45,,,{8}57,8h[4:1],,1>7[8:3],2,3h[2:1],,,,
{16}8x,,,5x/7x,,,{8}2x/4x,4-8[8:1]/5-1[8:1],,45`Cf,,{16}1x/2x-6[8:1],,,8,2,,7,,5/6-2[8:1],,,4,6,,3,,
{16}1/2-6[8:1],,,8,2,,{8}7,4b/8b,,2,{16}7,8,6-2[8:1],,,,46,,,,1/2-6[8:1],,,8,2,,7,,
{16}5/6-2[8:1],,,4,6,,{8}3,4b/8b,,,{16}7,8,7x,,,2x/4x,,,{8}1x/8x,5x/7hx[4:1],6,6b,{16}2,1,
{16}2x,,,5x/7x,,,{8}1x/8x,4x/2hx[4:1],3,3b,,8/7-4[8:1],,7/2-5[8:1],,{16}12,,,8,,,7,,
{4}2pp5[2:1]/6pp1[2:1],,,,3x-8[8:1]/7x-4[8:1],3/7,{16}2b/6b,,,4b/8b,,,1b/5b,,
{4}3b^8[4:1]/7b^4[4:1],,,{16}5,4,5,4,{64}5w1[8:1],{4},{64}B5,Cf,B1/B2/B8,,,,,{8},{4},{8}12,3/8h[4:1],
{8},6,5,4h[4:1],,5,6,7,{16}2,1,2,,{8}38,7,6,5,4,3/5h[4:1],
{16},,3>6[8:3],4,3,4,3,,,,,,,,,,7,5,6,5,7,4,5,4,6,,2,1,2,,3/8h[4:1],,
{8},6,5,4h[4:1],,{16}6,4,5,3,4,2,1x/8x,,,,,,4,4,4,,,3b/7b,,,5b/1bs5[8:7],,
{1},,
{2}3h[2:7],{48}E7,B6,{8},{3},{2},{48}B5,E5,{8},{3},
{2},{48}C,B3,{8},{3},{48}B5,E5,{8},{3},{2}B3/B4,
{2}6h[1:2],{48}C,B6,{8},{3},{2},{48}B2,B3,B4,,,,,,{3},
{1}Ch[4:3],{16}1x/8x,,,5x/7x,,,{8}2x/4x,4-8[8:1]/5-1[8:1],,45`Cf,,
{16}8x/7x^4[8:1],,,1,7,,2,,4/3^8[8:1],,,5,3,,6,,78,,,2,4-7[8:1]*-1[8:1],,{8}3,4b,,8,{16}2,1,
{16}3>8[8:1],,,,35,,,,8/7^4[8:1],,,1,7,,2,,4/3^8[8:1],,,5,3,,{8}6,1b/5b,,8,{16}2,1,
{16}2x,,,4x/7x,,,{8}1x/5x,4x/8x-4[8:1],,{4}1b/8b,2hx[16:3]/5hx[16:3],4hx[16:3]/7hx[16:3],{16}6,5,6,5,6,,45,,
{8}3h[4:1],4,5,6,7h[4:1],8,1,{16}2,4,2^7[8:1],,,,7,,6,,4x/5x,,,1x/3x,,,6b/8b,,
{8}4b/5b,,,{16}3,4,25,,,47,,,{8}36,1h[4:1],,8b,,7b,,6b,4,
{8}4b-1[2:1],,,,,,,5,5b-8[2:1],,,,{16}1,,,2,,,3,,
{8}4x/7x,47,36,36,25,25,{16}1,8,1,8,1x>8[16:5]/8xq1[16:5],,,,,,,,,,,,3b/6b,,,,
{8}45,2>5[8:1],1,8,,6<1[8:1],5,4,,2q3[8:3],1,8,,,6,5,
{8}4,3<6[8:1],2,1,,7^2[8:1],6,5,,4-8[8:1],3,2,,,{16}5,4,5,4,
{8}6,7<4[8:1],8,1,,3>8[8:1],4,5,,7p6[8:3],8,1,,,3,,
{8}B5/B6/2hx[4:1],,,B3/B4/7hx[4:1],,,B4/B5/1hx[4:1],,{16}7,8,6,8,,,2,1,3,1,,,3b-8[8:1]/7b-4[8:1],,,,
{4}3/7>6[4:7],Cf,,,,,,,
{1},,
{1},,
E

Re:MASTER


  • MASTER譜面を追加しました。修正等ありましたらよろしくお願いします。 -- けもがみ (2026-11-11 05:43:57)
名前:
コメント:

タグ:

+ タグ編集
  • タグ:
最終更新:2026年11月11日 05:43