アットウィキロゴ

トリドリ⇒モリモリ!Lovely fruits☆

アーティスト 曲:やしきん/歌:柏木 美亜(CV:和氣 あず未)

BPM BASIC ADVANCED EXPERT MASTER Re:MASTER
185 4 7+ 10+ 13 -

EXPERT MASTER Re:MASTER
譜面制作者 はっぴー すきやき奉行 -

BASIC


ADVANCED


EXPERT


MASTER

(185)
{16}3x/4x,,,3x/4x,,,{8}3x/4x,4x/3hx[4:1],,8,,{16}5x/6x,,,5x/6x,,,{8}5x/6x,5x/6hx[4:1],,1,,
{16}4/3h[16:3],,,8,,,,,5/6h[16:3],,,1,,,,,{2}1^4[8:1]/8^5[8:1],{16}4,5,4,5,2b/7b,,,,
{16}5/1-5[8:1],,,6,,,7,,4/8-4[8:1],,,3,,,2,,1/5h[16:3],,,6h[16:3],,,{8}7,8x/7x-3[8:1],,1,,
{16}5/1-5[8:1],,,6,,,7,,4/8-4[8:1],,,3,,,{8}2,2<5[4:1]/6h[2:1],,,,,,27,,
{16}4/8-4[8:1],,,3,,,2,,5/1-5[8:1],,,6,,,7,,8/4h[16:3],,,3h[16:3],,,{8}2,1x/2x-6[8:1],,8,,
{16}7hx[16:3],,,6h[16:3],,,5,,4hx[16:3],,,3h[16:3],,,{8}2,1^4[8:1]*^6[8:1],,,,Cf,,,5x/7x,
{8},6h[8:1],4,3h[4:1],5,4,,24,,3h[8:1],5,6h[4:1],4,5,,7x/4hx[8:5],
{8},6,6,5,5,,,2x/5hx[8:5],,3,3,4,4,,,4x/7x,
{8},6h[8:1],5,4h[4:1],3,3,,25,,3h[8:1],4,5h[4:1],6,6,,4x/7hx[8:5],
{8},6,6,5,5,,,5x/2hx[8:5],,3,3,4,4,,35,,
{1}4h[4:3]/6<3[2:1],3>6[2:1]/5h[4:3],
{8}6,6,57,,4,3,5,6,8,,{4}1-4[8:1]/7-4[8:1],,17,
{8}3,,3,,34,34,34,,56,56,56,56,,2x/7x,2x/7x,,
{4}8/3-8[8:1],6^1[8:1],3^8[8:1],6-1[8:1],3-7[8:1],6,4b/8b,,
{8}4,4,E7,,5,5,E3,,{1}1pp5[4:2]*qq5[4:2],
{8}6,5,E3,,3,4,E7,,{4}7q5[16:5],2p4[16:5],,,
{8}3,4,B7/E7,,6,5,B2/E3,,{4}5pp5[16:5],4qq4[16:5],,,
{8}6h[2:1],,,5,5h[4:1],,6,,5/3h[2:1],,,4,4,,27,2x/7x,
{8},4,35,4,26,4,17,2x/8x,,5,46,5,37,5,28,,
{8}7/1h[8:7],,3,,4,4,4,5hx[8:7],,7,7,,1,1,1,,
{4}1x-6[8:1]/2x-5[8:1],,7x-4[8:1]/8x-3[8:1],,1b/8b,4b/5b,{8}Cf/E3/E7,,,8b/2b^5[8:1],
{8},1-5[8:1],1,3-8[8:1],3,6,,7^4[8:1],,8-4[8:1],8,6-1[8:1],6,3,,3h[8:3],
{8},5,6h[4:1],5,1h[4:1],4,7h[8:1],3-7[8:1],,8-3[8:1]*-5[8:1],,8x,,2,4,5,
{12}7h[4:1],,,8x-4[8:1],8x,8x,8x,,,35,,,6/2h[4:1],,,1x-5[8:1],1x,1x,1x,,,{8}46,3x/7xpp2[8:3],
{8},3,4,5,6h[8:3],,1,1,,{16}1x/8x,,,5x/6x,,,{8}B3/B4/Cf/E3/E5,,,1x/7x^4[8:1],
{8},8-4[8:1],8,6-1[8:1],6,3,,2^5[8:1],,1-5[8:1],1,3-8[8:1],3,6,,6h[8:3],
{8},4,3h[4:1],4,8h[4:1],5,2h[8:1],6-2[8:1],,1-4[8:1]*-6[8:1],,1x,,7,5,4,
{12}2h[4:1],,,1x-5[8:1],1x,1x,1x,,,46,,,3/7h[4:1],,,8x-4[8:1],8x,8x,8x,,,25,,,
{4}4/8-6[8:1],5,5/1-3[8:1],4xqq2[16:5]*pp6[16:5],4x,,34,56,
{6}7hx[6:1],6h[6:1],5h[6:1],2hx[6:1],3h[6:1],4h[6:1],8hx[6:1],6h[6:1],5h[6:1],{8}4,3x/6x,2x/7x,1b/8b,
{8},25,36,47,5-1[8:1]/8-4[8:1],,{4}5/8w4[4:1],8x,,1b/2b,5b/6b,
{12}78,78,78,7x/8x,,,34,34,34,3x/4xpp4[16:5]*qq4[16:5],,,{8}4x,,,,2b/7b,,,4x/6x,
{8},3,35,3,34,3,23,2<4[8:3]/3h[8:5],,,,,,,12,1x/2x,
{8},6,46,6,56,6,67,7/6h[8:6],,8,1,2^5[8:1],,,,7x/8x,
{16},,2,1,2,,{8}3,4,35,36,37,,{16}7,8,7,,{8}6,5,46,36,26,
{8},2-5[8:1],4,2,,7-4[8:1],5,7,,1-5[8:1],3,1,,6,7,8,
{16}2x,1,2,1,3x,8,3,8,4x,7,4,7,5x,6,5hx[4:1],,,,7x,8,6x,1,6,1,5x,2,5,2,4x,3,4x,,
{8},1x^4[8:1]/8x^5[8:1],,1x/8x,,2b/7b,,1x/6hx[1:1],,,B6/B7,,B4/B5,,,3hx[1:1],
{8},,B2/B3,,B4/B5,,,7hx[1:1],,,6,,5,,4,4h[8:9],
{8},5,,3,,2,2^7[8:1],,,,{4}56,34,B5/B6,
{4}B3/B4,78,1h[4:1]/2h[4:1],,{8}4,4,5,5,{16}3,6,3,6,2,7,2,7,
{8}1x/8x,,5x/6x,,B3/B4/Cf/E3/E5,,,1x/7x^4[8:1],,8-4[8:1],8,5-1[8:1],5,2,,2x^5[8:1],
{8},1-5[8:1],1,4-8[8:1],4,7,,6h[8:3],,8,4h[4:1],1,5h[4:1],8,3h[8:1],1-5[8:1],
{8},3^8[8:1],,7b,,6,5,4,3h[4:1],,{12}1b^6[8:1],1b,1b,1b,,,45,,,
{12}6h[4:1],,,8b^3[8:1],8b,8b,8b,,,{4}45,1-5[8:1]/2-6[8:1],1x/2x,7-3[8:1]/8-4[8:1],7x/8xpp2[16:5]*qq6[16:5],
{4},,34,56,{6}1hx[6:1],6hx[6:1],4hx[6:1],2hx[6:1],7hx[6:1],5hx[6:1],
{6}3hx[6:1],1hx[6:1],4hx[6:1],{8}5x,3x/6x,2x/7x,1b/8b,,25,36,47,5-1[8:1]/8-4[8:1],,5/8w4[4:1],,
{4}8x,,1b/2b,5b/6b,{12}78,78,78,1x/6x,,,12,12,12,3x/8x,,,
{4}5x/2x^5[8:1],6x/2x-6[8:1],7b/Cf,8,{12}12,12,12,3x/8x,,,78,78,78,1x/6x,,,
{4}3x^8[8:1]/7x^4[8:1],3x-6[8:1]/7x-2[8:1],Cf,,{16}5/1-5[8:1],,,6,,,7,,4/8-4[8:1],,,3,,,2,,
{16}1/5h[16:3],,,6h[16:3],,,{8}7,8x/7x-3[8:1],,1,,{16}5/1-5[8:1],,,6,,,7,,4/8-4[8:1],,,3,,,2,,
{4}2<5[4:1]/6h[2:1],,,27,{16}4/8-4[8:1],,,3,,,2,,5/1-5[8:1],,,6,,,7,,
{16}8/4h[16:3],,,3h[16:3],,,{8}2,1x/2x-6[8:1],,8,,{16}7hx[16:3],,,6h[16:3],,,5,,4hx[16:3],,,3h[16:3],,,2,,
{8}8x-4[8:1],8,2x-6[8:1],2,7x-3[8:1],7,1x-5[8:1],1,6x-2[8:1],6,4x-8[8:1],4,8x,,B2/B7/Cf/E3/E4/E5/E6/E7,,
{1},,
{1},,
E

Re:MASTER


  • MASTER譜面を追加しました。修正等ありましたらよろしくお願いします。 -- けもがみ (2026-11-05 17:39:27)
名前:
コメント:

タグ:

+ タグ編集
  • タグ:
最終更新:2026年11月05日 17:39