アットウィキロゴ

The 90's Decision

アーティスト MYUKKE.

BPM BASIC ADVANCED EXPERT MASTER Re:MASTER
128 3 6 11 13 -

EXPERT MASTER Re:MASTER
譜面制作者 翠楼屋 アマリリス -

BASIC


ADVANCED


EXPERT


MASTER

(128){8},,,,,,,25,
{4}3bxh[4:7]/4bx,4,2,2,1,1,8,{8}8,47,
5bx/6bxh[4:3],,7,,8,,1,,2-7[8:1],2,5^8[8:1],5,4-1[8:1]b,4,5bx,,
{16}6,5,6,5,6,5h[8:1],,7h[8:1],,8,8h[8:1],,6,5,6,,4h[8:1],,6,6,5,5,,7h[8:1],,8,7,8,6h[8:1],,5,,
56,,45,,34,,25,25,,7,1,7,{8}1>5[8:1],,5>1[8:1],,8,,78,45,1b/3b,,

7-4[8:1],,4-7[8:1],,2,1,1x,2x,3h[4:1],4,5h[4:1],4,3h[4:1],4-7[16:1],4-1[16:1],,
,,26,,3,4,5p4[16:5]/7,6,3,,2,3,4,,3h[8:1]/4h[8:1],,
1b/2b,,8,7,6,,25,3h[4:3]/4-6[16:1],,4x-2[16:1],,4x-6-2[16:3],,4x,,1,
1-4[16:1],,1x/5x,,6,7,2p1[4:1]/8,,1<2[16:5],,,,,,1b/8b,,
4h[8:1]/6,8,3/5h[8:1],1,4h[8:1]/6,8,3/5h[8:1],1,3^8[8:1]/6,7^4[8:1],3,7,C,,5x/8x,,
4h[8:1]/6,8,3/5h[8:1],1,4h[8:1]/6,8,35,2-4-1-5[8:3]/6,,7h[2:1],,,,8,1-5[16:1],28,
1x,,3/5h[8:1],1,4h[8:1]/6,8,3<7[8:1]/5h[8:1],1,3bx,,8h[8:1],1h[8:1],2h[8:1],3h[8:1],4h[8:1],5h[8:1],
6-3[8:1],2h[4:1],6,,7-2[8:1],3h[4:1],7,,{16}5,4,5,4,7,8h[8:1],,4h[8:1],,3,4,3,5,,27,,

{4}1b/8b>7[2:5],,,B3,,B4,,B5,
,B6,,B7,{16}1,1,1,,28,,37,37,,4,{8}6,3bx/7bx,,
1-4[8:1]/8,,12,3,4-1[8:1],,6,,8-5[8:1],,78,6,4,,18,,
{16}4,4,5,5,6,6,7,7,{32}8x,1x,2x,3x,4x,5x,6x,7x,{16}8bx,,,,3b,8,3,7,4b-1[8:1],6,4,5,{8}4x,,27,,

45,2^7[8:1]/4,,2/7^2[8:1],6,5h[4:1],,3,2/7-4[8:1],4,3-6[8:1]/7,2,3/8-4[8:1],7,2>6[8:1],1,
2/7h[4:1],,8b,{16}2,12,,34,,16,1bxh[8:1]/6bxh[8:1],,,,3,5,2,5,3q8[8:1],5,1,5,{8}3,,7b,7b,
56,4/7^2[8:1],,2^7[8:1]/7,3,4h[4:1],,5,2-5[8:1]/7,5,2/6-3[8:1],7,16,2,3h[8:1]/4h[8:1],,
25,16,78,78,{16}56,56,,3xh[16:3]/8xh[16:3],,,,,6,3,6,2,6-3[8:1]b,1,6,8,6bx,,,,18,,,,

7,1,8,2,1,3h[8:1],,4h[8:1],,5,5,,7,8,7,,45,,2,2,1,1,,4h[8:1],,5,5b,,1b/8b,,,,
2,8,1,7,8,6h[8:1],,5h[8:1],,4,4,,2,1,2,,45,,7,7,8,8,,6-3[8:1]b,,3,3,,1b,,,,
2,4,3,5,4,6h[8:1],,7h[8:1],,8,8,,5^2[8:1],6,4,,57,,8,8,1,1,,6h[8:1],,5,5b,,7b/8b,,,,
7,5,6,4,5,3h[8:1],,1h[8:1],,2,2,,4^7[8:1],3,5,,24,,1,1,8,8,,3,,45,{8}45,2b/7b,,

18,78,6z2[16:3]/7s3[16:3],67,,,,,18,12,2z6[16:3]/3s7[16:3],23,,,,,
{16}5,5,4,4,3,3,2,2,{32}1x-5[8:1],8x,7x,6x,5x,4x,3x,2x,{1}1bxq2p1[2:1],{8}1bx/8bx,1bx/8bx,
{4}2bx/7bx,4>8qq1[2:1],4,,,
Ch[1:1],,,,{8}B2,A2,B6,A6,B3/B7,,2bx/7bx,2bx/7bx,
1/6-4[16:1],8,2-4[16:1],8,6-4[16:1],8,2-4[16:1],8,7-5[16:1],1,3-5[16:1],1,7-5[16:1],1,2bx,1bx/2bx,
7-1[16:1],5,3-1[16:1],5,7-1[16:1],5,2q4[4:1],5,4<3[16:5],,,,,,2b/7b,,

5^2[8:1]/7,6,35,{16}1,1h[8:1],,4,3,4,2,,1,,2/4^7[8:1],,3,,46,,8,8h[8:1],,5,5-2[16:1],,5-8[16:1],,,,
,,,,12,,3,3h[8:1],,4,4h[8:1],,5,,56,,8,,56,,13,,4,4h[8:1],,8,8,,2b/6b,,,,
2/4^7[8:1],,3,,46,,8,8h[8:1],,5,6,5,7,,8,,5^2[8:1]/7,,6,,35,,1,1h[8:1],,4,4-7[16:1],,4-1[16:1],,,,
,,8,,8,,17,17,,35,35,,2bx/6bx,,,,3-6[8:1]/7-2[8:1],,26,,3x/7x,,,,4-1[8:1]b/8-5[8:1]b,,37,,4bx/8bx,,,,
2,,7,5,6,4,5,3,4,2,,3-8[16:1]b/5-1[16:1]b,,,{1}3b/5b,,E

Re:MASTER


名前:
コメント:

タグ:

+ タグ編集
  • タグ:
最終更新:2026年07月18日 15:12