BASIC
ADVANCED
EXPERT
MASTER
(149)
{16}47,,,4,7,,{8}4h[8:3],7,,7,,{16}57,,,5,7,,{8}5h[8:3],7,,7,,
{16}47,,,4,7,,{8}4h[8:3],7,,7,,{16}37,,,3,7,,{8}3h[8:3],7,,7,,
{16}46,,,4,6,,{8}4-2[8:1],6,,6,,{16}35,,,5,3,,{8}5-7[8:1],3,,2,,
{8}8,1,27,27,{12}3,4,2,6,5,7,1bh[2:1],,,,,,6v1[8:1]b,,,5b,,,
{8}2-4[8:1],2,8,7,56,{16}6,5,,2,1,,{8}8/3h[4:1],7,6h[4:1],4,5h[4:1],7,8,8,
{8}3/7-3[8:1],7,1,1,24,{16}3,4,,6,5,,{8}47,3^8[8:1],8^5[8:1],6,4-8[8:1]b,,3x,,
{8}2-5[8:1],2,6,7,78,{16}2,1,,3,4,,{8}4/2h[4:1],5,6h[4:1],3,2h[4:1],4,5<1[4:1],,
{4}1>5[4:1],5,1,6/2-6[8:1],2/8h[4:1],{8}5,5,4v1[8:1]*v7[8:1],35,,,
{8}2b/6b,,26,1,17,{16}6,5,,3,4,,{8}2/5h[4:1],3,2h[4:1],4,5h[4:1],3,1,1,
{8}5/2-6[8:1],2,8,8,47,{16}6,5,,3,4,,{8}25,6^1[8:1],1^4[8:1],3,5-1[8:1]b,,6x,,
{8}7-4[8:1],7,3,2,18,{16}6,5,,3,4,,{8}25,25,36,47,8/5-1[8:1],7,6,,
{4}2-6[8:1]/8-6[8:1],2/8-4[8:1],38,2-7[8:1]/6-3[8:1],2b/6b,{8}48,15,2/6v1[8:1]b,,5b,,
{8}3bh[8:7],,1,8-5[8:1],,8,,6h[2:1],,4b,5V71[4:1],3,,,2hx[8:9],,
{8}1x,,1,8-5[8:1],,8,,6h[2:1],,4,5-1[8:1],3,,,1bx/2bx,,
{8}3h[8:7],,1,8-5[8:1],,8,,6h[2:1],,4b,5<1[4:1],3,,,2h[4:1],,
{4}1-3[8:1],1/7h[4:1],8-6[8:1],18,2x-5V31[8:3]/5hx[4:1],,,{16}2bx/7bx,,8,1,
{8}8V61[4:1],,5,5>2[8:1],,8-5[8:1],,8/1h[8:7],,5x,5x,4,3,2,8,{16}7,7,
{8}1V38[4:1],,4,4-7[8:1],,1-4[8:1],,1/6h[4:3],,4x,4x,5,5,4,35,{16}2,4,
{4}2-6[8:1],2/5^8[8:1],35,{8}2,13,8/4V28[4:1],,6,6-4[8:1],,6x,,2,
{4}2-4[8:1]/4-1[8:1],24,5/8^5[8:1],{8}4,3h[8:7],,4,4,,5-8[8:1],,5,,
{4}1-4[8:1]/3-1[8:1],13,8/5^8[8:1],{8}E1,Ch[8:5],,,,,8w4[8:1]b,,Cf,,
{8}2bx/6bx,,26,1,25,{16}3,4,,6,5,,{8}7-1[8:1],7,5-3[8:1],5,6,6,17,8,
{8}2>4[8:1],2,8,7,56,{16}6,5,,2,4,,{8}1-5[8:1],6^1[8:1],1^4[8:1],6,5bxw1[8:1]b,,5b,,
{8}3b/7b,,35,2,26,{16}3,4,,6,5,,{8}4/7-1[8:1],7,5-3[8:1],5,6-2[8:1]b,6,4>6[8:3],,
{4}8<4[4:1],4,8,2h[4:1]/6v1[8:1],6,{8}48,37,2-5[8:1]/6-1[8:1],15,2b/6b,,
{8}3bx/7bx^4[8:1],,2,2,12,{16}3,4,,6,5,,{8}7-2[8:1],7,6-3[8:1],6,7,7,17,8,
{8}2-5[8:1],2,8,8,47,{16}6,5,,3,4,,{8}1-5[8:1],6<1[8:1],1^4[8:1],6,5bxw1[8:1]b,,5b,,
{8}7-3[8:1],7,3,2,12,{16}3,4,,6,5,,{8}7-2[8:1],7,6-3[8:1],6,8-5[8:1],8,2,2,
{4}1-3[8:1]/4-8[8:1],4/1-5[8:1],17,2-7[8:1]/6-3[8:1],2b/6b,{8}48,15,2>5[8:1]b/6v1[8:1]b,,2b/6b,,
{1}A1/A2/A3/A4/A5/A6/A7/A8/B3/B7/Cf/D1/D2/D4/D5/D6/D8,,
{1},,
E
Re:MASTER
- MASTER譜面を追加しました。修正等ありましたらよろしくお願いします。 -- けもがみ (2026-11-12 08:17:01)
最終更新:2026年11月12日 08:17