BASIC
ADVANCED
EXPERT
MASTER
(74)
{2},{32}1,2,3,4,5,6,7,8,1,2,3,4,5,6,7,8,
{6}1h[8:5],{16}5,{48}6,,,,,8^5[24:19],,{8},,,2,2,3,3,,{32},4,,3,,,2pp4[16:7],,{8},,4,
{4}4>8[4:3],6,6,7,{8},36,36,,35,{64},35,,,,,,,{8},3-6[4:3],
3,,,4,4,,,5q2[8:7],5,,,4,4,,,3>6[8:9],3,,,3,3h[4:1],,,2z6[2:1],{4}2,,,{8},6-3[8:5],
6,,,5,{2}5h[4:1],{8}4-1[8:1],{2}5-8[8:1],{8}1hx[64:5],,6^3[8:5],6,,,6,6,,5-1[4:3],,{1}4h[4:3],
{16}3/4pp4[2:1],34,34,3/4qq4[2:1],{4}34,,,5h[4:1],6h[4:1],7h[4:1],,
{16}1V35[8:5]/5V71[8:5],15,15,15,{4}15,,,C,,3,3q7[4:3],
3h[4:1],{16},,,2,{4},4p8[8:5],4h[8:1],{8}5,{2}5h[4:1],{16}1s5[8:5],1,
{2}1,{8},6,{4}6<3[2:1],6h[2:1],,,{16}2bxv4[16:3]b/6bxv8[16:3]b,4bx/8bx,2bx/6bx,4bx/8bx,
{4},{96},,,,,,,,,,,3bx/7bx,{16},1bx/5bx,{8}3bx/7bx-3[8:1]b,1-5[8:1]b,7bx,1bx,
{16}6bx,3bx^8[16:3]/7bx,{8}3bx/7bx,8q2[8:3],,7,{96},,,,,,,,,,,6,{16},5,4,3<7[16:5],
{8},,,{16}3,4,{8}5qq5[16:3],6pp5[4:1],5,6,{16}4,4,{8}3h[8:1],2q6[8:1],,1h[8:1],,
{128}7bx/8bx,,,,,,,{16}5bx/6bx,3bx/4bx,1bx/2bx,{128},
{8},,,{16}2-4[8:1],2,{8}4-1[8:1],1^6[8:1],6pp3[4:1],,3-5[8:1],5>8[4:1],,{2}8w4[8:1],{16}2-6[8:5],2,
3,3,4,{32},1x,{16}1hx[16:3],,,{32},5x,{4}5hx[4:1],{96},,,,,,,,,,,7-3[96:61],{16},7,
6,6,5,{32},8x,{16}8hx[16:3],,,{32},4x,{4}4hx[8:1],{16}2b,2b,1,1,
{4}8,{16}6,5,4,3,{8}2h[8:1],8h[8:1],{32}1pp4[1:1],2,3,4,5,6,7,8,
{64}1,,,,,,,,,{4}8h[64:11],{24},{64}7,,,6,,,5h[192:91],,,,,{48},{8},,,
{8},{96},{8}7h[8:1],6h[8:1],4h[8:1],3h[192:25],{192},1h[64:23],{48},,,,,{16},,,{48},3,4,
{4}5h[1:1],6,8,2,(69){8},36,3h[8:1]/6h[8:1],,(57)46,4h[4:1]/6h[4:1],(62),,
(57){32}6,5,{48}4,3,{24}2^7[48:55],,,,,
{64}6,,,{128}6,,,,,,,{384}6,,,,,,,,,,,,,,,,,,,{192}5,,,,,,,
{32}5,{24}5,{192}4,,,,,,,,,,,,,{64}4,3,,,,,2,,,,,,{1}3h[64:43],,,,E
Re:MASTER
- MASTER譜面を追加しました。修正等ありましたらよろしくお願いします。 -- けもがみ (2026-04-12 04:02:54)
最終更新:2026年04月12日 04:02