BASIC
ADVANCED
EXPERT
MASTER
(150)
{1}8xV64[8:9],
{8},2xq6[4:3],{4},{2},
{1}7xV13[8:9],
{8},4xq2[8:7],{4},{2},
{1}7xV53[8:9],
{8},1xs5[8:7],{4},{2},
{1}6xpp2[8:9],
{8},4xw8[8:3],{4},{2},
{8}7xh[8:3],6,5,4,6h[8:3],5,4,3,
{8}5h[8:3],4,3,2,4h[8:3],3,2,1,
{1}2z6[2:1],
{8},7,6,5,4,3,2,1,
{8}2xh[8:3],3,4,5,3h[8:3],4,5,6,
{8}4h[8:3],5,6,7,5h[8:3],6,7,8,
{8}7xh[8:3],6,5,4,6h[8:3],5,4,3,
{8}5h[8:3],4,3,2,18,{16}7,8,,8,{8}7,
{2}7xq2[2:1],C,
{2}1q4[2:1],C,
{2}7p4[2:1],C,
{8}E8,E1,E2,E3,E4,E5,{4}E6,
{2}2p7[2:1],C,
{2}8p5[2:1],C,
{2}2q5[2:1],C,
{1}3>7[2:1]/4pp6[2:1],
{4}2xh[4:7]/6x,5,4,{8}3,3,
{4}3,1,{8}8,8,{4}8,
{4}3/7h[4:7],4,{8}5,5,{4}5,
{4}6,8,{8}1,1,{4}1,
{8}7x/8x,7,67,6,56,5,45,4,
{8}34,3,23,2,12,1,{4}18,
{16}7,8,7,8,7,8,{8}7,{16}6,5,6,5,6,5,{8}6,
{8}4x/5x,{16}3,4,,4,{8}3,{4}18,2bp3^6[8:7]/7b,
{2}5xh[4:1],{8}7,8,1,2q1^6[4:3],
{8},5xh[4:1],,,4,3,{4}2pp3^6[8:7],
{2}6xh[4:1],{8}7,8,1,2V85[8:3],
{8},4xh[4:1],,,{4}3,7bq6^3[8:7]/8b,
{2}4xh[4:1],{8}2,1,8,7p8^3[4:3],
{8},4xh[4:1],,,5,6,7-3[8:1]b,2,
{8}1,8-4[8:1]b,5,6,7-3[8:1]b,2,1,8-4[8:1]b,
{8}5,6,7,2-5[8:1]b,,2b/7bq6^3[1:1],{4},
{2}3xh[4:1],{8}2,1,8,7p8^3[4:3],
{8},4xh[4:1],,,5,6,{4}7qq6^3[8:7],
{2}3xh[4:1],{8}2,1,8,7q3[4:1],
{8},4xh[4:1],,,4,5,{4}2-6[8:1]b/6,
{8}8,1-5[8:1]b,4,3,2-6[8:1]b,7,8,1-5[8:1]b,
{8}4,3,2,3,{4}46,3/7-3[8:1]b,
{8}1,8-4[8:1]b,5,6,7-3[8:1]b,2,1,8-4[8:1]b,
{8}5,6,7,2,{4}15,2b/7b,
{2}3xh[4:1]/6xh[4:1],{8}7-4[8:1],8-3[8:1],7,8,
{8},5xh[4:1]/6xh[4:1],,,7-4[8:1],8-3[8:1],7,8,
{8}6x-1[8:1],5-2[8:1],6,5,{4},{8}34,1-5[8:1]/2-6[8:1],
{8},1x/2x,{4},{8}7-3[8:1],3-7[8:1],{4}7b,
{8}2^5[8:1],1,{4}2,{8}8,8^3[8:1],,78,
{8},1x^6[8:1],,12,3,4,5p1[8:1]b,8,
{8}7,6q2[8:1]b,3,4,5p1[8:1]b,8,7,6q2[8:1]b,
{8}3,4,5,8w4[4:1],,8b,{4},
{2}3xh[4:1]/5xh[4:1],{8}2-5[8:1],1-6[8:1],2,1,
{8},3xh[4:1]/4xh[4:1],,,2-5[8:1],1-6[8:1],2,1,
{8}3x-8[8:1],4-7[8:1],3,4,{4},{8}56,7-3[8:1]/8-4[8:1],
{8},7x/8x,{4},{8}5,46,{4}3/7p3[8:1]b,
{8}1,8q4[8:1]b,5,6,7p3[8:1]b,2,1,8q4[8:1]b,
{8}5,6,7,6,{4}35,2q6[8:1]b/6,
{8}8,1p5[8:1]b,4,3,2q6[8:1]b,7,8,1p5[8:1]b,
{8}4,3,2,1,{4}48,2bq3^6[4:3]/7b,
{2}5xh[4:1],{8}7,8,1,2p1^6[8:5],
{8},5xh[4:1],,,4,3,{4}2qq3^6[4:3],
{2}6xh[4:1],{8}7,8,1,2V85[8:3],
{8},4xh[4:1],,,{4}3,7bp6^3[4:3]/8b,
{2}4xh[4:1],{8}2,1,8,7V14[2:1],
{8},4xh[4:1],,,5,6,7v4[8:1]b,2,
{8}1,8v3[8:1]b,5,6,7v4[8:1]b,2,1,8v3[8:1]b,
{8}5,6,7,2-5[8:1]b,,2b/7bp6^3[4:3],{4},
{2}4xh[4:1],{8}2,1,8,7q8^3[8:5],
{8},4xh[4:1],,,5,6,{4}7pp6^3[4:3],
{2}4xh[4:1],{8}2,1,8,7q3[4:1],
{8},4xh[4:1],,,4,5,{4}2v5[8:1]b/6,
{8}8,1v6[8:1]b,4,3,2v5[8:1]b,7,8,1v6[8:1]b,
{8}4,3,2,3,{4}45,{8}3/7v4[8:1]b,2,
{8}1,8v3[8:1]b,5,6,7v4[8:1]b,2,1,8v3[8:1]b,
{8}5,6,7,2,{4}15,2b/7b,
{4}1x/8x-5[8:1],{16}8,1,,,{8}2/4-7[8:1],2,{16}4,3,,,
{8}2/8-5[8:1],2,{16}8,1,,,{8}24,{16}3,4,,4,{8}3,
{16}1-4[8:1]/8,,,8,{8}1,7,5-2[8:1]/7,7,{4}56,
{16}1-4[8:1]/7,,,8,{8}1,7,57,{16}6,5,,5,{8}6,
{4}1x-4[8:1]/8x,{16}1,8,,,{8}5-2[8:1]/7,7,{16}5,6,,,
{8}1-4[8:1]/7,7,{16}1,8,,,{8}57,{16}6,5,,5,{8}6,
{16}1/8-5[8:1],,,1,{8}8,2,2/4-7[8:1],2,{4}34,
{16}2/8-5[8:1],,,1,{8}8,2,24,{16}3,4,,4,{8}3,
{2}1b/8b,{32}7,5,,,{8}46,35,2h[2:1]/4h[2:1],
{2},{32}1,3,,,{8}24,35,46,
{8}57,{32}8,6,,,{8}57,4h[4:1]/6h[4:1],,,35,2>6[4:1]/4,
{8},26,,,7,46,35,24,
{8}15,26,3h[8:1]/7h[8:1],,26,1h[8:1]/5h[8:1],,2v4[8:3]/6v8[8:3],
{8},26,{4},,{8}37,37,
{8},5-2^4[8:5]/6-1^7[8:5],47,56,{2},
{4},{8},56,{16}3,4,,2,{8}1,3b/8b,
E
Re:MASTER
最終更新:2026年06月29日 21:36