BASIC
ADVANCED
EXPERT
MASTER
(135){2},,,
6h[2:3],{4},C,,,3h[2:3],,,C,,,7h[2:3],,,C,,,2h[2:3],,,C,,,3h[4:1],4h[4:1],5h[4:1],{2}6w2[1:1],,,
(150){4}3b/7b,46,46,46,35,35,35,35,47,47,47,47,{8}56,45,{16}3,4,3,6h[16:3],,,4,5,4,5,{8}2,1x-7[8:1]/3x,,1,5-3[8:1],,5,8-6[8:1],,8,4-2[8:1],,4,7-5[8:1],,7,3,{16}3,2,1,8,7,6,5,4,37,8,1,2,3,4,5,6,{2}7-2[8:1]/3-6[8:1],8-4[8:1]/1-5[8:1],
{16}36,,4,5,4,,6,5,6,,4,5,4,,6,5,6,,3,4,3,,5,4,5,,3,4,2b,,,,25,,3,4,3,,5,4,5,,3,4,3,,6,5,6<2[16:3],,,,5,5,,4z8[16:3],,,1,,8,,7,,6x,,2,1,2,,8,1,8,,2,1,2,,7,8,7,,1,8,1,,7,8,7,,2,1,3b,,,,27,,7,8,7,,1,8,1,,7,8,7,,2,1,2>6[16:3],,,1,,8,,7xh[16:7],,,5,4,3,2,1,,
1x/7xV53[4:1],,,,4,4,,2,,,1,8,1,8,1,,7x/2xV46[4:1],,,,5,5,,7-3[8:1],,,8,,1b,,,,2xV46[4:1],,,,5,5,,7,,,8,1,8,1,8,,2x/7xV53[4:1],,,,4,4,,2-5[8:1],,8-5[8:1],,2,,8,,,3xV17[4:1],,,,8,8,,6-3[8:1],,,4,,1b,,,,2xV46[4:1],,,,5,5,,7,,,58,,3x/6x,,1x/4x,,5,5,2,2,6,6,3,3,7,7,4,4,8,8,5,5,{32}7x,6,5,4,3,2,1,8,7,6,5,4,3,2,1,8,{16}7>2[4:1],,,1,1,,3,,{1}5b,
{2},{8},E6,E5,E4,{2}E2/E3,E7/E8,B4/B5,E1/E2/E8,{4}5h[2:1],{16}2,3,4,,{4}4>1[4:1],,6h[2:1],{16}2,3,4,,{2}4>1[4:1],7<4[4:1],8>3[4:1],5<8[4:1],1bw5b[8:1],
{4}4x/7xh,2h/5,4/7h,2h/5,5/7h,2h/4,5/7h,2h/4,6/7h,2h/3,6/7h,2h/3,4h[4:1]/5h[4:1],{16},,,3b/4b,,,5b/6b,,,1b/8b,,,2,2,3,3,4,4,5,5,6-2[8:1],6,7,7,,,,,7,7,6,6,5,5,4,4,3-7[8:1],3,2,2,,,,,{32}1x,2,3,4,5,6,7,8,1,2,3,4,5,6,7,8,{16}1-5[8:1],,6h[16:1],,,7h[16:1],,,8b,,,,,,,34,,45,,56,,1b/8b,,,
(300){4}2x-5[8:1],8-5[8:1],1-4[8:1],7-4[8:1],{8}2,2,,1,,68,68,,7x-4[8:1],,1-4[8:1],,8-5[8:1],,2-5[8:1],,7,7,,8,,13,13,,2x-5[8:1],,8-5[8:1],,1-4[8:1],,7-4[8:1],,2,2,,1,,68,68,,27,,4/5<8[4:1],,1,2,3,4,,57,,24,,18,18,,7x<5[8:1],,1-5[8:1],,8-4[8:1],,2>4[8:1],,7,7,,8,,13,13,,2x>4[8:1],,8-4[8:1],,1-5[8:1],,7<5[8:1],,2,2,,1,,68,68,,7x<5[8:1],,1-5[8:1],,8-4[8:1],,2>4[8:1],,7,7,,8,,13,13,,6,5,6,3,4,3,7bV51[8:5]/2bV48[8:5],,{1},
(150){16}3x/7xh[8:1],,5,6,7,8,1,,3x/7xh[8:1],,5,6,7,8,1,,2xh[8:1]/6x,,4,3,2,1,8,,2xh[8:1]/6x,,4,3,2,1,8,,3x/7xh[8:1],,5,6,7,8,1,,3x/7xh[8:1],,5,6,7,8,1,,2xh[8:1]/6x,,4,3,2,1,8,3x/7x,,,4x/5x,,,2x/6x,,,5x/7xh[4:1],,3,2,1,8,7,6,5xh[4:1],,8,1,2,3,4,5,6xh[4:1],,2,1,8,7,6,5,4xh[4:1],,7,8,1,2,3,4,5xh[4:1],,1,8,7,6,5,4,7x-2[8:1]/3x-6[8:1],,,,,,,,4b/8b,,,2b/7b,,,1b/5b,,,8,8,8,{4}1b/7b,
2xh[4:9]/6xh[4:1],,8h[4:1],,1h[4:1],,{8}3,4,5,6,{2}7xh[2:3],4h[4:1],6h[4:1],{24}4x,3,2,1,,,{4}27,
(300){8}8x-4[8:1],8,2-6[8:1],2,7-3[8:1],7,1-5[8:1],1,8x,7x,6x,,3,3,4,,1x-5[8:1],1,7-3[8:1],7,2-6[8:1],2,8,8,,5x<8[4:1]*>2[4:1],,5x,,,,,8x-4[8:1],8,2-6[8:1],2,7-3[8:1],7,1,1,,24,,18,,57,57,,3x,6,3,6,3,5,3,5,3,4,3,2,3,1,3,,7x,4,7,4,7,5,7,5,7,6,7,8,7,1,7,,3x,3,4,4,5,5,6,6,7,7,8,8,{16}1x,2,3,4,5,6,7,8,
(135){1}1bw5[4:9],,,{4}6h[2:3],,,C,,,3h[2:3],,,C,,,(130)4h[4:1],(125){4}5h[4:1],(120)6h[4:1],(115)7,(110){8},28,(105){4}8-4b[16:1]/2-6[16:1],(100){2}Cf,{1},,,
E
Re:MASTER
最終更新:2026年06月14日 23:29