| アーティスト |
カルロス袴田 feat. 日南めい, 古川由彩 |
BASIC
ADVANCED
EXPERT
MASTER
(155){4}6,6,{24}6,,,4x,5x,4x,{4}6bx-1[8:1],3b-8[8:1],5v2[8:1],4v7[8:1],6pp1[2:1],3,5,{8}4,4,{4}6-1[8:1],3b-8[8:1],5v2[8:1],4v7[8:1],6,{16}7/8,,,4/5,,,3/6,,3/6,,{24}5,4,5,{4}3-8[8:1],6b-1[8:1],4v7[8:1],5v2[8:1],3qq8[2:1],6,4,{8}5,5,{4}3-8[8:1],6b-1[8:1],4v7[8:1],5v2[8:1],3,1-5[8:1]/2-6[8:1],1/2,B4/E5/D5/B7/E7/D7,8b,
{16}6,5,6,5,6,,6/5,,{4}7<5[8:1],7/8,{16}7,8,7,8,7,,6,,5/6,,7,,7/8,,,,6,5,6,5,6,,5/6,,{4}7<5[8:1],7/8,{16}7/8,,,7/8,,,7/5,,7/5,,{24}6,4,6,{4}4,{16}3,4,3,4,3,,3/4,,2>4[8:1],,,,2/1,,,,2,1,2,1,2,,3,,4/3,,2,,2/1,,,,3,4,3,4,3,,4/3,,{4}2>4[8:1],2/1,1-4[8:1]/2-4[8:1],1b/2b,2b/6b,8-2[8:1],
{4}4/8,8-2[8:1]/4,4/8,8pp3[2:1]/4,4,4,4,1-7[8:1],5/1,1-7[8:1]/5,5/1,1qq6[2:1]/5,5,5,5,4/6,{16}4h[8:1]/6h[8:1],,,3h[8:1]/5h[8:1],,,2/4,,,,1/2,,1/2,,,,5h[8:1]/3h[8:1],,,6h[8:1]/4h[8:1],,,7/5,,,,8/7,,8/7,,,,{4}5/6,3/4,1/2,1/8,{16}2/4,,,5/7,,,4/5,,1/8,,{24}6x,5x,4x,{4}3x,
{8}3>8[8:1]/5,5,3/5,5,3-8[8:1]/4,4,3/4v1-3[4:1]*v7-5[4:1],4,,,,,1x>4[8:1]/7x<4[8:1],,1x/7x,,2-7[8:1]/6-3[8:1],1/5,,,5,7,1b,3b/5b,5b/7b>2[8:1],,3<6[8:1],,8-5[8:1],,1,1,2/4-8[8:1],,3,3,5,E5/E4/B4,E8/E7/B7,,6<1[8:1],,5,,8<5[8:1],3,2-7[8:1],,{4}2b/6-3[8:1],6b/4-1[8:1],4b/5-8[8:1],1/5b,{16}2/8,,,3/5,,,2/6,,{24}2/6,,,3x,4x,5x,{4}6x,{8}6<1[8:1]/4,4,6/4,4,6-1[8:1]/5,5,6/5v8-6[4:1]*v2-4[4:1],5,,,,,8x<5[8:1]/2x>5[8:1],,8x/2x,,7-1[8:1]/3-1[8:1],6/4,,,4,2,8b,6b/4b,4b/2b<7[8:1],,6>3[8:1],,1-4[8:1],,8,8,7/5-1[8:1],,6,6,4,E5/E6/B5,E2/E3/B2,,3>8[8:1],,4,,1>4[8:1],6,7-3[8:1],,{4}7b/2-6[8:1],2b/8-5[8:1],8b/4-1[8:1],5/4b,{2}2b/6b,{24},,,1,8,1,{4}2bx/7bx,
{16}6,5,6,5,{8}6v4-2[4:1],7,8,8,8,,{16}2,4,2,4,2>5[8:1],,1,,7p3[8:1],,,,2,,,,2,1,2,1,2,,3,,4/6,,7,,1/8,,,,5/7,,,2/4,,,1/8,,1/8,,{24}6,5,4,{4}3,{16}3,4,3,4,{8}3-5v7[4:1],2,1,1,1,,{16}7,5,7,5,7<4[8:1],,8,,2q6[8:1],,,,7,,,,7,8,7,8,7,,6,,5/3,,2,,{4}8-4[8:1]/1-5[8:1],1b>4[8:1]/8b<5[8:1],1b/8b,2b/7b,B4f/E5/E4,
{4}2h[2:1]/6,5,4,{8}3,3,{4}5h[2:1]/2,1,8,{8}7,7,{4}8h[2:1]/6,5,4,{8}3,3,{4}4h[2:1]/2,1,8,{8}7,7,1h[4:1]/6,,5,5,4/7h[4:1],,3,3,2/4h[4:1],,1,1,5h[4:1]/8,,7,7,8h[8:1]/6,6,3h[8:1]/5,5,7h[8:1]/4,4,1h[8:1]/3,3,{16}2/4,,,5/7,,,1/8,,{4}1-5[8:1]/8,1>8[8:3]b,Cf,,{24},,,1,8,1,{8}2bx/7bxv4[8:1],,
{8}3v8[8:1]/7,2,6<1[8:1],5,2>5[8:1],3,8,8,8>3[8:1]/7<4[8:1],,7/8,,1<6[8:1]/2>5[8:1],,2/1,,7h[4:1],5,3h[4:1],4,6h[8:1],2,1-4[8:1]/8-5[8:1],2/7,,,3x/6x<2[4:1],,2x<6[4:1],,3,3,4-8[8:1],,5,5,1,E7/E6/B6,E5/E4/B4,,2pp5[8:3],,8,,1,1,4/8-5[8:1],,1-4[8:1]/8,,1/2<7[8:1],,2/5-8[8:1],,4/5,,{16}2/4,,,1/8,,,5/7,,5/7,,{24}8,1,8,{8}7bx/2bxv5[8:1],,6v1[8:1]/2,7,3>8[8:1],4,7<4[8:1],6,1,1,1<6[8:1]/2>5[8:1],,2/1,,8>3[8:1]/7<4[8:1],,7/8,,2h[4:1],4,6h[4:1],5,3h[8:1],7,8-5[8:1]/1-4[8:1],7/2,,,3x-1-5[4:1]/6x,,5,,6,6,4h[4:1]/7h[4:1],,,{24}2,5,2,5,,,{8}E7/E6/B6,E1/E2/B1,,{16}4/5,,,2/7,,,1b/8b,,{4}3b/6b,1-4[8:1]/5,1/8-5[8:1],7>2[8:1]/8,4-1[8:1]/7,4/5,5h[2:1],,{24},,,1/5,2/6,3/7,{4}4/8,
{16}2,1,2,1,3v1-7[4:1],,4,,5,,,,6,,6,,7,1,7,1,7>1[8:1],,6,,3<5[8:1],,,,8,,,,7,5,7,5,7,,4,,3/5,,2,,1/8,,1/8,,2/4,,,5/7,,,1/8,,1/8,,D4/E4/B4/D7/E7/B6,,{4}D1/A1/A8/E1,2h[4:1]/5h[4:1],{24},,,7,4,7,{8}4,D6/E6/B5/D3/E3/B3,{4}D1/A8/A1/E1,{16}2/4,,,1/8,,,5/7,,4/5,,3/6,,3/6,,,,2,1,2,1,2,,3,,4/6,,7,,{4}2>5[8:1]/8<5[8:1],2x/8x,{8}6,3,4/5,{24}4,5,3,4-1[8:1]b*-7[8:1]b,E
Re:MASTER
- MASTER譜面を追加しました。修正等ありましたらよろしくお願いします。 -- Sugar (2026-05-08 20:17:42)
最終更新:2026年05月08日 20:17