EASY
BASIC
(128.66){1},
{4},,,7,
{4},,,7,
{4},,,7,
{4},,,6,
{4},,,6,
{4},,,7,
{4},,,7,
{4},8,,1,
{4}2,2,2,,
{4}3,3,3,,
{4},4,,5,
{4},6,,7,
{4}6,6,6,,
{4}5,5,5,,
{4},5,,4,
{4},3,,2,
{1}2/7,
{1}3/8,
{1}1/6,
{2}2/7,1/8,
{4}1/7,,,8,
{4}2/8,,,1,
{1}1/3,
{1}2-6[2:1],
{4},,6,6,
{4}2/7,,8,1,
{4}3/6,,5,4,
{4}2/7,,1,1,
{2}1,1/2,
{2}3,4/5,
{2}6,3/6,
{2}7,7,
{1}7h[4:3],
{4},8,8,8,
{1}1-4[2:1],
{4},,3,3,
{1}2h[4:3],
{4},3,4,5b,
{1}6-2[2:1],
{4},,1,1,
{1}8h[4:3],
{4},7,8,7b,
{1}7h[4:3],
{4},6,7,6,
{1}7-2[2:1],
{4},,2,2,
{4}3,3,3,3b,
{4},2,,2,
E
ADVANCED
(128.66){4},,,6,
{4}2h[4:1],1b,,8,
{4},7,,6,
{4}5h[4:1],6b,,7,
{4},8,,1,
{4}6h[4:1],5b,,4,
{4},2^7[4:1],,,
{4}2,2,7,7,
{4}2,2,6h[2:1],,
{4}8,1,2,2,
{4}5,6,7,7,
{4}1,8,7,7,
{4}3,3,6,6,
{2}2h[4:1],7h[4:1],
{4}2,7,1,1,
{2}6h[4:1],3h[4:1],
{8}1,8,1,8,1/8,,1b/8b,,
{2}1h[4:1],6-2[2:1],{1},
{2}8h[4:1],3-7[2:1],{1},
{4},4,4,3,
{4}2,6,8,8,
{4},1,1,3,
{1}4h[4:3],
{4}6h[4:3],2,3,2,
{4}2h[4:3],6,7,6,
{4}7h[4:3],6,5,6,
{4}2h[4:3],3,4,3,
{4}8h[4:1],7,1,1b/8b,
{4}1h[4:1],2,8,1b/8b,
{4}2,1,8,7,
{4}6,6/7,7/8,1/8,
{4}1b/5h[1:2],8,8,8,
{4},1,1,1,
{4}2h[1:2],7,7,7,
{4},6,6,6,
{4}6h[4:3],3,7,3,
{4}3h[4:3],6,2,6,
{4}7h[4:3],2,6,2,
{4}2h[4:3],7,3,7h[4:5],
{1}8h[1:1],
{4},6,1,2h[4:5],
{1}1h[1:1],
{4},8,7,8h[4:5],
{1}1h[1:1],
{4},2,1,2,
{4}3,3/4,5,5/6,
{4}7,5/6-3[4:1],,,
E
EXPERT
(128.66){4},,,6h[1:2],
{4}7,8,1,2,
{4}3,4,5,3h[1:2],
{4}2,1,8,7,
{4}6,5,4,8h[4:7],
{4}1,2,3,4,
{4}5,6,7,8,
{8}1,2,3,4,5,6,7,8,
{8}1,2,3,4,5^8[4:1],,,,
{8}1,,2,,3,4,3,,
{16}2,,1,,8,,7,,6,,,6,,,,,
{8}8,,7,,6,5,6,,
{16}7,,8,,1,,2,,3,,,3,,,,,
{8}2,,1,,8,7,8,,
{16}1,,8,,7,,8,,1,,8,7,,,,,
{8}7,,8,,1,2,1,,
{8}8,7,6,5,4,3,2,,
{8}1^6[4:1],,,,5,4,3,,
{8}8^3[4:1],,,,4,5,6,,
{8}7^4[4:1],,,,3,2,1,,
{8}2^5[4:1],,,,6,7,8,,
{8}6,7,8,1,2,,3/4,,
{8}3,2,1,8,7,,5/6,,
{8}6,7,8,1,2,1,8,7,
{4}6h[4:1],5h[4:1],4h[4:1],3h[4:1],
{8}2,1,8,1,2,1,8,,
{8}6,5,4,5,6,5,4,,
{8}1,2,3,2,1,2,3,,
{8}5,6,7,6,5,4,5,6,
{8},8,1,2,3^6[4:1],,,,
{8},1,8,7,6^3[4:1],,,,
{8},2,3,4,5^8[4:1],,,,
{2}1^4[4:1],5^8[4:1],
{4}1h[4:1],2h[4:1],3h[4:1],4h[4:1],
{8}5,,4,3,2h[4:1],,1h[4:1],,
{4}8h[4:1],7h[4:1],6h[4:1],5h[4:1],
{8}4,,4,5,6h[4:1],,5h[4:1],,
{4}4h[4:1],3h[4:1],2h[4:1],1h[4:1],
{8}7,,6,5,2,,3,4,
{4}5h[4:1],6h[4:1],7h[4:1],8h[4:1],
{8}2,,3,4,5h[4:1],,3h[4:1],,
{4}1h[4:1],7h[4:1],5h[4:1],3h[4:1],
{8}1h[4:1],,2,3,4h[4:1],,6h[4:1],,
{4}8h[4:1],2h[4:1],4h[4:1],6h[4:1],
{8}8h[4:1],,7,6,7h[4:1],,1h[4:1],,
{4}3h[4:1],5h[4:1],7h[4:1],1h[4:1],
{4}3h[4:1],5h[4:1],7h[4:1],8,
{8}1b,3,5b,7,1b,3,5b,7,
{8}1b,3,5b,7,1^4[4:1],,,,,
E
MASTER
(128.5){8}
,5,4,3,2,,1,,
6h[1:1],,2,,3,4,3,4,
,4,5,6,7,,8,,
3h[1:1],,7,,6,5,6,5,
,8,6,7,5,,13,,
7h[1:1],,1,,2,5,3,4,
,1,3,2,4,,68,,
7,6,7,6,3,4,5,7,
8,1,2,3,3^8[4:1]/7^4[4:1],,,,
(128.8){16}
,,,,4,,,,1,,2,3h[4:1],,,,,
4,,,,5,,,,8,,7,6h[4:1],,,,,
7,,6,,5,,,,1,,2,3h[4:1],,,,,
2,,3,,4,,,,8,,7,6h[4:1],,,,,
1,,,,3,,2,,4,,3,5h[4:1],,,,,
8,,,,6,,7,,5,,6,4h[4:1],,,,,
7,,68,,7,,68,,5,,4,3h[4:1],,,,,
2,,31,,2,,31,,4,,5,1h[4:1],,,,,
(128.5){8}
1/7b,8,1,2,3,,56,,
28,1,8,7,6,,43,,
27,1,8,2,6,,18,,
36,4,5,2,7,,2,6,
18,12,78,36,45,,18,,
24,3,1,2,35,,14,,
57,6,8,7,46,,25,,
36,4h[8:5],,,2,,1b,,
12,,7,,1,3,2,4,
87,,2,,8,6,7,5,
43,,6,,4,2,3,1,
56,,3,,5,7,6,8,
12,6,67,6,16,3,26,4,
78,,2,,28,6,27,5,
34,,6,,46,2,36,1,
56,,3,,5,7,4-8[2:1],,
(128.7)
{16}3,,,2,,,{8}1,,35,,46,
,1,2,3,5h[4:1]/4,,6^1[2:1],,
{16}3,,,4,,,{8}4,,14,,23,
,8,7,6,4h[4:1]/5,,3^8[2:1],,
{16}6,,,5,,,{8}5,,85,,76,
,1,7,5,6h[4:1]/8,,8^3[2:1],,
{16}4,,,6,,,{8}7,,12,,78,
,8,2,4,3h[4:1]/1,,8h[1:2],,
(128.8){4}
1,2,3,4,
5,6,7,1b,
{8}
6,5,4,3,2,1,8,7,
6,5,4,3,2,1,{4}8-3[4:1],
4-7[4:1],6-1[4:1],2-5[4:1],7-2[4:1],
1-4[4:1],3-6[4:1],5-8[4:1],7^4[4:1],
5^2[4:1],3^8[4:1],1^6[4:1],7^4[4:1],
5^2[4:1],3^8[2:1],,,
{1}
,,,
E
Re:MASTER
最終更新:2026年10月01日 20:32