アットウィキロゴ

Neon Kingdom

アーティスト litmus*

BPM BASIC ADVANCED EXPERT MASTER Re:MASTER
130 4 6 10+ 13+ -

EXPERT MASTER Re:MASTER
譜面制作者 Jack 小鳥遊さん -

BASIC


ADVANCED


EXPERT


MASTER

(130){1}4-8[2:1],
{8}6h[8:3],,,5,,4,4,,3h[8:3],,,5h[4:1],,4,4,,
6h[8:3],,,5h[8:3],,,4,,34,,5,46,,4,35,,
3h[8:3],,,4,,5,5,,6h[8:3],,,4h[4:1],,5,5,,
3h[8:3],,,4h[8:3],,,5,,56,,45,{24}4,5,4,{16}6,6,5,,4b/7b,,,,
56,,,5,6,,5,,6,5,5,,56,,{24}5,6,5,{16}7,,,5,7,,5,,7,5,5,,46,,,,
34,,,4,3,,4,,3,4,4,,34,,{24}4,3,4,{16}2,,,4,2,,4,,2,4,{8}4,1b/5b,,
2x/4xh[8:1],2,3/5h[8:1],3,4/6h[8:1],4,5/7h[8:1],5,6/8h[8:1],6,1h[8:1]/7,7,2h[8:1]/8,8,1/3h[8:1],1,
{16}2,2,3,3,4,4,5,5,6,6,7,7,8,8,1,,2h[8:1]/3h[8:1],,,5h[8:1]/6h[8:1],,,7h[8:1]/8h[8:1],,,1h[8:1]/4h[8:1],,,{4}2b/6b,

34,{24}2,1,2,1,2,1,{16}3h[16:3],,,4h[16:3],{8},5,5/6h[4:1],8,5h[4:1],8,6h[8:1],8,15,,
47,,{24}6,5,6,{16}4,4,5,,3,3,4,,24,,3h[4:1],,1,,4h[4:1],,1,,3,3,4,,{4}2b/5b,
34,{24}2,1,2,1,2,1,{16}3h[16:3],,,4h[16:3],{8},5,5/6h[4:1],8,5h[4:1],8,6h[8:1],8,15,,
{16}3,4,2,2h[8:1],,4,3,6h[8:1],,4,5,2h[8:1],,4,4,,6,5,7,7h[8:1],,5,6,3h[8:1],,4,4,,5,5,5,5,
4b/6b,,,,{24}7,8,7,8,7,8,{16}6h[16:3],,,5h[16:3],{8},4,3h[4:1]/4,1,4h[4:1],1,3h[8:1],1,48,,
25,,{24}3,4,3,{16}5,5,4,,6,6,5,,57,,6h[4:1],,8,,5h[4:1],,8,,6,6,5,,{4}4b/7b,
56,{24}7,8,7,8,7,8,{16}6h[16:3],,,5h[16:3],{8},4,3h[4:1]/4,1,4h[4:1],1,3h[8:1],1,48,,
{16}6,5,7,7h[8:1],,5,6,3h[8:1],,5,4,7h[8:1],,5,5,,3,4,2,2h[8:1],,4,3,6h[8:1],,5,{8}5,3b/7b,,

1-5[8:1]/8,,1b^7[8:1]/6b,,1^3[8:1]/5,5,1^7[8:1]/6,6h[8:3],1^3[8:1],,1^7[8:1],{16}6,5,{8}14,4,15,5,
{24}6,5,6,{16}5,,4b/7b,,,2h[8:1],,1h[8:1],,8h[8:1],,7,7,,6,4,5,3h[8:1],,2h[8:1],,1,7,7,5,6,2,2,4,3,
{8}4xw8[8:1],,4b,,4/8^6[8:1],4,3/8^2[8:1],3h[8:3],8^6[8:1],,8^2[8:1],{16}3,4,58,,5,,38,,3,,
2xh[8:1]/5xh[8:1],,,3h[8:1]/4h[8:1],,,4xh[8:1]/7xh[8:1],,,5h[8:1]/6h[8:1],{8},4x/5x,1b/8b-2-7-3-6-4[8:5],,A2,A7,A3,{4}A6,Cf/B2/B3,

6h[4:3],,,4,3h[4:3],,,4q6[4:3],
2,,,,6h[4:1],5h[4:1],4h[4:1],3,
2pp5[4:5]/4,,,6,6h[2:1],,,7,
8h[8:3],{8},5>1[8:3],,,C,,B8,,,1h[8:1],{16}8,1,8,,3b/6b,,,,
1x/7x,,,,3,3,4,,2xh[8:1]/5xh[8:1],,,4xh[8:1]/7xh[8:1],,,1x/6xh[4:1],,,,5,,7,7,8,8,6,,4xh[8:1]/7xh[8:1],,,2xh[8:1]/5xh[8:1],,,
3xh[4:1]/8x,,,,4,4,2,2,1xh[8:1]/5xh[8:1],,,4xh[8:1]/7xh[8:1],,,2x/6xh[4:1],,,,5,5,6,6,7,7,8b,,1xh[8:1]/2xh[8:1],,,5xh[8:1]/6xh[8:1],{8},
4h[8:1]/7,7,3h[8:1]/6,6,2h[8:1]/5,5,1h[8:1]/4,4,3/8h[8:1],3,2/7h[8:1],2,1/6h[8:1],1,5h[8:1]/8,8,
{1}4b/7b-3[2:1],{16}4,,,5,{8},4,45,45,3b/6b,,

{32}25,1,8,7,6,5,4,3,{8}2b/7b,,1^3[8:1]/5,5,1^7[8:1]/6,6h[8:3],1^3[8:1],,1^7[8:1],{16}6,5,{8}1^3[8:1]/4,4,15,5,
{24}6,5,6,{16}5,,4b/7b,,,2h[8:1],,1h[8:1],,8h[8:1],,7,7,,6,4,5,3h[8:1],,2h[8:1],,1,8,8,5,6,1,1,4,3,
{8}4w8[8:1],,4b,,4^6[8:1]/7,7,4^2[8:1]/8,8,4^6[8:1],1h[16:1],4^2[8:1]/8h[16:1],7h[16:1],4^6[8:1]/8h[16:1],1h[16:1],8h[16:1],7h[16:1],
5xh[16:3]/8xh[16:3],,{16}6,5,4,3,2xh[8:1]/4xh[8:1],,,5xh[8:1]/7xh[8:1],{8},1b-7-2-6-3-5[8:5]/6b,,A7,A2,A6,A3,,Cf,,
{32}3/7,8,1,2,3,4,5,6,{8}2b/7b,,4/8^6[8:1],4,3/8^2[8:1],3h[8:3],8^6[8:1],,8^2[8:1],{16}3,4,{8}5/8^6[8:1],5,48,4,
{24}3,4,3,{16}4,,2b/5b,,,7h[8:1],,8h[8:1],,1h[8:1],,2,2,,3,5,4,6h[8:1],,7h[8:1],,8,1,1,4,3,8,8,5,6,
{8}5w1[8:1],,5b,,2/5^3[8:1],2,1/5^7[8:1],1,5^3[8:1],8h[16:1],1h[16:1]/5^7[8:1],2h[16:1],1h[16:1]/5^3[8:1],8h[16:1],1h[16:1],2h[16:1],
1xh[16:3]/4xh[16:3],,23,5xh[16:3]/8xh[16:3],,67,45,1b/8b-2-7-3-6-4[8:5],,A2,A7,A3,A6,,{32}1,8,7,6,5,4,3,2,
{1}1b/Cf,,,E

Re:MASTER


名前:
コメント:

タグ:

+ タグ編集
  • タグ:
最終更新:2026年09月26日 15:13