アットウィキロゴ

Paradisoda

アーティスト 魂音泉

BPM BASIC ADVANCED EXPERT MASTER Re:MASTER
135 3 7 10+ 13 -

EXPERT MASTER Re:MASTER
譜面制作者 サファ太 シチミヘルツ -

BASIC


ADVANCED


EXPERT


MASTER

(135){1},
{16}6h[16:3],,,5,,,,,4,,4,,5,,,,5h[16:3],,,4,,,,,3h[16:3]/4,,,4,,,,,
3h[16:3],,,4,,,,,5,,5,,4,,,,4h[16:3],,,5,,,,,5/6h[16:3],,,5,,,,,
46,,,4/6h[16:9],,,,,5,,5,,4,,,,5h[16:3],,,4,,,,,3h[16:3]/4,,,4,,,,,
35,,,3h[16:9]/5,,,,,4,,4,,5,,,,4h[16:3],,,5,{8},,36,36,4-1[32:3]/5-8[32:3],45,

{32}E5,Cf,E1,,{8},7-4[8:1],7,2-6[8:1],2,1-4[8:1],1,2-6[8:1],2,7-4[8:1],7,2-6[8:1],2,8,,
7-3[8:1],7,4-1[8:1],4,7-3[8:1],7,6-1[8:1],6,7-3[8:1],7,4-1[8:1],4,8,8,2x/7x,1b,
7-3[8:1],7,2-5[8:1],2,7-3[8:1],7,8-5[8:1],8,7-3[8:1],7,2-5[8:1],2,7-3[8:1],7,1,,
6-2[8:1]*-8[8:1],6,6x,,3-1[8:1]*-7[8:1],3,3x,,2pp4[8:1]/6qq4[8:1],26,2x/6x,,2-6[8:1]/8-4[8:1],28,2x/8x,,

3b/7b,{16}2,4,3,4,3,4,2,4,3,4,1x,,2x/8x,,8x,,1x/7x,,6,5,6,5,8x,,1x/7x,,26,,2,4,
3,6,5,7,2,4,3h[8:1],,1x,,,,7,4,6,5,8,1,7,2,4,3,5,2,6,5,7,4,8,1h[8:1],,4,
,2,1,,3x/8x,,2,4,3,4,2x,,2x/8x,,7,5,6,4,5,3,4,2,4,,7x/8x,,1x/8x,,2,4,3,5,
4,6,5,7,5h[8:1],,1,,1x/2x,,1x/8x,,7,5,6,2,4,3,8,6,7,1,3,2,7,5,6h[8:1],,1b,,2b/7b,,

{4}5^8[4:1],,4^1[4:1],,5p4[8:3],,,1x,
5-8[4:1],,4-1[4:1],,5v4[16:3],,{12}2,4,3,7,5,6,
{4}1/5^8[2:1],E1,E2,E3,4^1[2:1]/8,E1,E8,E7,
{8}E5/B4,E1/B8,E7/B6,E3/B2,E8/B7,E2/B1,E6/B5,E4/B3,{16}B7,B1,B5,B3,B8,B2,B6,B4,{4}Cf,1-6[32:3],

1-4[32:3]/3,17,{16}7,8,,2,{8}1,34,5<3[4:1]/6,7,8h[16:3],,,8,26,,
8^5[32:3],8^3[32:3],8x,8x,4w8[32:3],4,4x,,{32}1x/8x,2x,3x,4xh[32:5],,,,,1x,2x,3x,4xh[32:5],,,,,1x,2x,3x,4xh[32:5],{8},8-3[32:3],,
6/8-5[32:3],,28,,{16}3,4,,6,{8}5,78,1,2/4h[8:3],{32}E4,E5,E6,E7,E8,E1,E2,E3,{8}E4,1,37,,
25,{16}3,4,,4,1,,47,,6,5,,5,8,,{32}1x/8x,7x,6x,5xh[32:5],,,,,8x,7x,6x,5xh[32:5],,,,,8x,7x,6x,5xh[32:5],{8},1b^6[32:3],,
1^4[32:3]/3,,17,,{16}2,1,,7,{8}8,56,3/4>6[4:1],2,1h[16:3],,,1,37,,
{16}2,4,3,,78,,12,,38,,6,5,47,,1b/8b,,{32}1x/8x,2x,3x,4xh[32:5],,,,,1x,2x,3x,4xh[32:5],,,,,1x,2x,3x,4xh[32:5],{8},8^3[32:3],,
6/8^5[32:3],,28,,{16}7,8,,2,{8}1,34,5<3[16:3]/6,7,8h[2:1],,{32}E5,E6,E7,E8,E1,E2,E3,E4,{4}E5,
3-8[32:3]/7-4[32:3],37,2-5[32:3]/6-1[32:3],2<3[2:1]/6p3[2:1],,,,1b,

5^7[16:3],,4^2[16:3],,7p5[2:1],,,,
3^6[4:1],,7p2[4:1],,E1,E5,{2}C,
4^2[16:3],5^7[16:3],2q4[2:1],,
6^3[4:1],2q7[4:1],8<2[2:1],{8},1b,{4}1b,
6V47[2:1],E2,C,E6,3V52[2:1],E8,C,E4,
6^3[4:1],E5,2q7[4:1],C,E1,E5,C,8b,
3V52[2:1],E8,C,E4,6V47[2:1],E2,C,E6,
3b/7h[4:1],3x,2b/6h[4:1],2x,1b/5,1x-4[32:3]/5-8[32:3],1b/5b,37,

4/5h[4:1],1b,{16}6,5,,3,{8}4,21,3/4>6[16:3],57,8h[16:3],,,8,2b/6b,,
1^4[32:3],1^6[32:3],1x,1x,5w1[32:3],5,5x,,{32}3x/8x,4x,5x,,,,,,3x/8x,4x,5x,,,,,,3x/8x,4x,5x,,{8},2b^8[32:3]/6b^4[32:3],,
2q6[32:3]/6q2[32:3],,26,,{16}6,5,,3,{8}4,12,34,5/7h[8:3],{32}E4,E3,E2,E1,E8,E7,E6,E5,{8}E4,8,2b/6b,,
47,{16}6,5,,5,8,,25,,3,4,,4,1,,{32}1x/6x,5x,4x,,,,,,1x/6x,5x,4x,,,,,,1x/6x,5x,4x,,{8},4b^2[32:3]/8b^6[32:3],,
4q8[32:3]/8q4[32:3],,48,,{16}2,1,,7,{8}8,16,3>6[16:3]/4,57,8h[16:3],,,8x,2b/6b,,
{16}7,5,6,,12,,78,,16,,3,4,25,,1b/8b,,{32}3x/8x,4x,5x,,,,,,3x/8x,4x,5x,,,,,,3x/8x,4x,5x,,{8},3b^5[32:3]/7b^1[32:3],,
3p7[32:3]/7p3[32:3],,37,,{16}7,8,,2,{8}1,38,5/6<3[16:3],42,1h[2:1],,{32}E5,E6,E7,E8,E1,E2,E3,E4,{4}E5,
2-5[32:3]/6-1[32:3],26,3-8[32:3]/7-4[32:3],3q6[2:1]/7>6[2:1],,,,1b,
,{1}E3/E8/B3/B7,,E

Re:MASTER


名前:
コメント:

タグ:

+ タグ編集
  • タグ:
最終更新:2026年04月18日 19:30