EASY
BASIC
ADVANCED
EXPERT
MASTER
(135)
{8},,1,8,,4,3,2,,5,6,7,,36,27,18,36,,7,6,5,2,3,4,{16}6,5,,,3,4,,,1,,8,,1,8,1,,
6,,3,4,,,25,,3,,6,5,,,47,,6,,4,5,,,36,,{2}1-4[16:1]/8-5[16:1],
{8}4,,5,,36,27,,1,,8,2,7,3,6,{16}4,5,4,5,
2,,7,7,,,16,,7,,2,2,,,38,,27,,1,8,,,27,,{2}4-1[16:1]/5-8[16:1],
{8}2,,7,,3,6,,4,,5,5,4,5,4,{16}6,3,6,3,
{4}6h[4:1],2,{16}7,1,,5,,5,,,{4}3h[4:1],7,{16}2,8,,4,,4,,,
{4}7h[4:1],2,{16}18,18,,27,,36,,45,{8}45,,,2h[8:3]/7h[8:3],{2},
{8}5h[4:1],,3h[4:1],,7h[4:1],4,8,2h[4:1],,5,,8,,2,5,6,
4h[4:1],,6h[4:1],,2h[4:1],5,1,7h[4:1],,4,3,2,1,6,{16}2,7,2,7,
{8}1h[4:1],,7h[4:1],,3h[4:1],8,4,6h[4:1],,1,,45,,3h[4:1]/6h[4:1],,,
{2}4-1[8:1]/5-8[8:1],{8},27,,1,,8^6[8:1],,2,1^3[8:1],,7,8v5[16:3],
,3,2,1v4[16:3],,6,7,8-5[8:1],,2,1-4[16:1],,{2}8b,
{8}3,6,4h[8:3],{2}5h[4:1],{8}18,,6,3,7h[8:3],,3,2h[2:1],,
4,,6,,8h[8:5],3,2,1h[4:1],,,18,36,,18,27,18,
{2}2h[2:1]/7h[2:1],{8},35,16,3h[8:5]/4h[8:5],{2},{8},64,83,
{2}6h[8:3]/5h[8:3],{16}6,5,6,,3,4,3,,36,,
{8},8,7,6,,1,2,3,48,3,26,1,26,37,48,,
{16}3,,7,2h[16:3],,,7,,6,,2,7h[16:3],,,2,,3,,8,3h[16:3],,,8,,{4}2-6[16:1],8,
3h[4:1],7,{8}68,17,,18,28,38,48,58,37,27,{16}8,1,8,1,
7,,3,6h[16:3],,,3,,1,,6,3h[16:3],,,6,,6,,1,6h[16:3],,,1,,{4}7-3[16:1],1,
{2}2p5[4:1],{8}7,8,1,2h[4:3],,1,8,7h[4:1],,,{16}4,5,3,6,
{4}3-8[16:1],5,{16}3,4,,1,,2,,,{4}6-1[16:1],4,{16}6,5,,8,,7,,,
{4}4-1[16:1],5,{16}8,1,,7,,2,,6,{8}3b,,,45,,4,3,2,
15,26,37,4h[4:1]/8h[4:1],,,48,3h[8:1]/7h[8:1],,2h[8:1]/6h[8:1],,1h[8:1]/5h[8:1],,26,37,,
{4}2/6h[4:1],3,7/3h[4:1],6,{8}2,7,1,8,3,6,{16}4,5,3,6,
{2}4-1[8:1],{8}5^8[8:1],4^1[8:1],,{2},{4}27,36,
{1}3v1[2:1]/7v5[2:1],{2}1-4[8:1]/5-8[8:1],4^1[8:1]/8^5[8:1],{16},,
6,5,6,,2,1,2,,6,1,6,,78,,16,,
25,,3,4,,25,25,,3,,6,5,,47,47,,6,,4,5,,36,36,,{4}1^4[16:1]/8^5[16:1],18,
4,5,{8}36,27,,3b/4b,1b/6b,3b/8b,5b/6b,4b/6b,2b/7b,1b/5b,{16}2,6,3,7,
4,,45,45,,36,36,,27,,36,36,,27,27,,1,8,2,7,3,6,4b,,{4}4-1[16:1]/5-8[16:1],4b/5b,
,16,{8}4,5,6,7h[4:1],,2,8q4[8:1],{1}4^6[8:1],,,,E
Re:MASTER
- MASTER譜面を追加しました。修正等ありましたらよろしくお願いします。 -- けもがみ (2026-04-12 10:16:21)
最終更新:2026年10月04日 09:45