| アーティスト |
ヒゲドライバー feat.らいむっくま(CV:村川梨衣) & れもんっくま(CV:MoeMi) |
BASIC
ADVANCED
EXPERT
MASTER
(132)
{1},
{4}7,{16}2,,,7,,7,,,{4}2,
{4}7,{16}2,,,7,,7,,,{4}2,
{8}7pp5[2:1],4,,4,,4,,4,
{8}5,4,5,{16}4,5,,5,{8}4,B6/E7,B3/E3,
{8}7x,45,2x,{16}45,7x,,7x,{8}45,2x,45,
{8}7x,45,2x,{16}45,7x,,7x,{8}45,2x,45,
{8}6qq8[2:1],1,,1,,1,,1,
{4}1h[8:1],2h[8:1]/8h[8:1],{8}5w1[12:1],4b/6b,{48}5b,B5,C,B1,,,,,,,,,
{8}46,3,12,{16}7,8,,8,{8}7,12,37,
{8}45,6,78,{16}2,1,,1,{8}2,78,26,
{16}6,5,,4x/7x,,18,18,,3,4,,2x/5x,,18,18,,
{16}6,5,,4x/7x,,18,18,,2x/4x,,,5x/7x,,,1b/8b,,
{8},4x-2[32:3]/5x-8[32:3],36,4x/5x,,4x-1[32:3]/5x-7[32:3],36,4x/5x,
{8},4xqq2[32:3]/5xpp7[32:3],36,4x/5x,,1xpp3[32:3]/8xqq6[32:3],27,1x/8x,
{8},2xqq8[32:3]/6xqq4[32:3],37,2x/6x,,3xpp5[32:3]/7xpp1[32:3],26,3x/7x,
{8},4x/5x,36,4x/5x,{16}3b/8b,38,,1b/6b,{8}16,2b/7b,
{4},1-5[4:1]/C,,{8},37,
{4}37,{16}6,,56,5h[16:5]/6,{8},8,6h[4:1],8,
{8}5h[4:1],8,{4}6qq3[4:1],8h[16:3],{8},1x,
{8}1x,6,{16}6,,56,5/6h[16:3],{8},7h[8:1],8h[8:1],7h[8:1],
{8}6h[8:1],5h[8:1],6h[8:1],7h[8:1],8h[4:1],1x,1x,18,
{8}78,67,{4}5qq5[16:3]/6pp6[16:3],,{8},18,
{8}12,23,{4}3qq3[16:3]/4pp4[16:3],,,
{8}1,2,{16}3,,34,3h[16:5]/4,{8},1,4h[4:1],1,
{8}3h[4:1],1,{4}1pp4[4:1]*qq6[4:1],,,
{32}7h[32:3]/8h[32:3],,,,1x/6x,2x/5x,3xh[32:3]/4xh[32:3],,,,2x/5x,1x/6x,7x<3[8:1]/8xp2[8:1],,,,{8},,,1,
{8}78,6,78,1,{16}7/8h[16:3],,,1h[16:3],,,2,,
{32}1h[32:3]/2h[32:3],,,,3x/8x,4x/7x,5xh[32:3]/6xh[32:3],,,,4x/7x,3x/8x,1xq7[8:1]/2x>6[8:1],,,,{8},,,8,
{8}12,3,12,8,{2}1h[16:3]/2h[16:3],
{32}3h[32:3]/7h[32:3],,,,2x/6x,1x/5x,4xh[32:3]/8xh[32:3],,,,1x/5x,2x/6x,3x^8[32:3]/7x^4[32:3],,,,{8},,,5,
{8}16,2,38,7,{16}5h[16:3]/6,,,4h[16:3],,,3,,
{16}3,3h[16:7],,B1,,B5,,C,6,6h[16:7],,B8,,B4,,C,
{16}2,2h[16:7],,B3,,B6,,C,7x,,,1x/2x,,,7x/8x,,
{8}4/5h[8:3],4,4,4,{16}2,4,3,5,4,6,5,7,
{2}Cf,{8}27,36,4xqq4[4:1]*<8[32:3]/5x,,
{8},{48}E1,B1,B2,B3,B4,E5,{4}5xpp5[4:1]*>1[32:3],{8},{48}E1,B8,B7,B6,B5,E5,{4}4xqq4[4:1]*<8[32:3],
{8},{48}E1,B1,B2,B3,B4,E5,{4}5xpp5[4:1]*>1[32:3],{8},{48}E1,B8,B7,B6,B5,E5,{4},
{8}34,25,{16}16,,7/8^5[8:1],78,{8},1,2,3,
{8}4-1[32:3]/5-8[32:3],45,,,{16}2x/7x,,,4x/5x,{4}4x/5xpp5[4:1]*>1[32:3],
{8},{48}E1,B8,B7,B6,B5,E5,{4}4xqq4[4:1]*<8[32:3],{8},{48}E1,B1,B2,B3,B4,E5,{4}5xpp5[4:1]*>1[32:3],
{8},{48}E1,B8,B7,B6,B5,E5,{4}4xqq4[4:1]*<8[32:3],{8},{48}E1,B1,B2,B3,B4,E5,{4},
{8}56,47,{16}38,,2,2,{8}1-5[16:1],4-8[16:1],,,
{8}6,3,{4}4q5[16:3]/5<4[16:3],{48}4x/5x,B5,B6,B7,B8,B1,B2,B3,B4,,,,{4},
{8}7x,B4/B5,2x,{16}B4/B5,7x,,7x,{8}B4/B5,2x,B4/B5,
{8}7x,B4/B5,2x,{16}B4/B5,7x,,7x,{8}B4/B5,2x,B4/B5,
{8}8h[2:1],1,2,3,4h[32:15],7,6,5h[32:3],
{32}3x/6x,2x/7x,1xh[32:3]/8xh[32:3],,,,2x/7x,3x/6x,4xh[32:3]/5xh[32:3],,,,3x/6x,2x/7x,1xh[32:3]/8xh[32:3],,,,2x/7x,3x/6x,4x/5x,,,,{4}B2/B3/B6/B7/C,
{8}7/8x,B4/B5,1x/2,{16}B4/B5,7/8x,,7/8x,{8}B4/B5,1x/2,B4/B5,
{8}7/8x,B4/B5,1x/2,{16}B4/B5,7/8x,,7/8x,{8}B4/B5,1x/2,B4/B5,
{8},26,37,48,15,48,37,26,
{4}1/5h[4:3],Ch[2:1],,,
{16}38,,,16,,,45,,{4}4w8[12:1]/5,{48}4b,B4,C,B8,,,,,,,,,
{8}35,6,78,{16}2,1,,1,{8}2,78,26,
{8}45,3,12,{16}7,8,,8,{8}7,12,37,
{16}3,4,,5x/7x,,18,{8}18,{16}6,5,,2x/4x,,18,{8}18,
{16}3,4,,5x/7x,,18,{8}18,{16}2x/4x,,,5x/7x,,,1b/8b,,
{8},4x-2[32:3]/5x-8[32:3],36,4x/5x,,4x-1[32:3]/5x-7[32:3],36,4x/5x,
{8},4xqq2[32:3]/5xpp7[32:3],36,4x/5x,,1xpp3[32:3]/8xqq6[32:3],27,1x/8x,
{8},2xqq8[32:3]/6xqq4[32:3],37,2x/6x,,3xpp5[32:3]/7xpp1[32:3],26,3x/7x,
{8},1x/5x,2x/6x,3x/7x,{16}4xqq4[4:1]/8xqq8[4:1],4x/8x,,4x/8x,{4}4x/8x,
{4},C,{8}B2/E2,B8/E8,B4/E4,B6/E6,
{1}45,
E
Re:MASTER
最終更新:2026年08月30日 15:32