アットウィキロゴ

STEREOSCAPE

アーティスト 164 feat. めいちゃん

BPM BASIC ADVANCED EXPERT MASTER Re:MASTER
164 3 6 9 12 13

EXPERT MASTER Re:MASTER
譜面制作者 はっぴー 華火職人 Jack

BASIC


ADVANCED


EXPERT


MASTER


Re:MASTER

(164)
{1}3-6[4:7],,
{1}7-2[4:7],,
{4}3h[2:1],,4h[2:1],,5^7[4:1],7^1[4:1],1^3[4:1],3^5[4:1],
{8}5,,7,7p3[4:1],,3q5[8:5],,1h[8:5],{1},
{8}6,,56,,4,4,,6,5,5,,57,,4,4,,
{8}3,,34,,5,5,4,,2,2,4,3,,6,56,,
{4}A2/A4,A3,A5/A7,A6,

(190)
{4}A1/A2/D2,A4/A5/D5,A7/A8/D8,E4/E5f/E6,{8}1x/2x,3,4,7x/8x,6,5,1b/8b,,
{8}2-5[8:1],,2,7-4[8:1],,7,,5/3h[4:1],,1,8,7,6/5-1[8:1],,5,,
{8}7-4[8:1],,7,2-5[8:1],,2,,4/6h[4:1],,8,1>4[8:1],,8<5[8:1],,1,,
{8}3h[4:1],,4,25,,{4}4/7-3[8:1],2-6[8:1],8h[4:1],{8}1,2b/7b,,,,
{4}E5,E4,E3,E2,E1,E8,E7,{8}E6,4,
{4}4,D6,D7,D8,D1,D2,D3,{8}D4,5,
{4}5,46,35,7-4[8:1],2-5[8:1],8h[4:1],{8}1,28,37,,
{8}56,,12,8/3-7[8:1],,5-8[8:1],,1,,34,25,,78,78,6/1-5[8:1],,
{8}8,,7,7,5,6,1,1,28,3-8[8:1]/7-4[8:1],,37,,26,35,4,
{8}8<5[8:1],,8,3>8[8:1],,3,6,,{4}5/7-3V51[8:5],3,1,2>5[8:3],
{4}8h[2:1],,6,7<4[8:3],1h[2:1],,3,2q5[4:2],
{4}8,,7-4[8:1],78,1-4[8:1]/2-4[8:1],12,{16}6,5,6,,3b/7b,,,,
{8}1x/2x,3hx[8:3]/8hx[8:3],,,,3-1[8:1]/8-4[8:1],,3x/8x,,6,57,,5,3,24,,
{8}7x/8x,1hx[8:3]/6hx[8:3],,,,1-5[8:1]/6-8[8:1],,1x/6x,,3,24,,4,6,5/7-1[8:1],,
{16}7/3-5[8:1],,,,36,,,,7,8,7,,2,1,2,,{1}A3/A7/B3/B7/Cf,

(95)
{8}1/2-6[16:1],78,2,8,1v4[16:1]/7v4[16:1],35,17,,
{8}2<4[16:3],34,8,,7>5[16:3],56,1,,
{8}56,34,2/1-5[16:1],7/8-4[16:1],1>4[16:1],8<5[16:1],1,8,
{16}2hx[8:1]/4hx[8:1],,,1xv4-2[8:1]/8xv5-7[8:1],,5x/7x,,1bx/8bx,,,,,{32}1x,8,1,8,1,8,1,8,

(190)
{8}2b-6[8:1],,2,7-3[8:1],,7,,4/2h[4:1],,1,8,7,2-5[8:1]/6-1[8:1],,26,,
{8}37,6,4,28,,7/1>7[8:3],17,,,8,8,,1,1,28,,
{8}7h[4:1],,5,5h[4:1],,4h[4:1],,2,2-8[8:1],,{4}6-4[8:1],3-7[8:1],5<4[1:3],
{1}Cf,,
{8},{1},{8}3,3,,5,5,46,,
{8}5,5,,3,3,4,,26,,4,4,5,1,1,28,,
{8}56,47,,3,3h[4:1],,1,28,,6,6-4[8:1],,2-8[8:1],,7,,
{8}34,25,,6,6h[4:1],,8,17,,2,2^4[8:1],,6,6,5,,
{4}34,2,18,7,6/5^3[4:1],3^1[4:1],1<7[4:1],7<4[4:1],
{4}4>1[4:1],1^6[4:1],6^3[4:1],3>5[2:1],8,,4-8[8:1],,
{8}2,,2,,3,5,3,,4,,4h[4:1],,5,4,5h[4:1],,
{8}6,,6,,7,5,7,4x^1[8:1]/8x^5[8:1],,,,1x^4[8:1]/5x^8[8:1],,,,,
{4}57,45,4/2-6[8:1],2/7-3[8:1],7/1^4[8:1],1/8^5[8:1],8/1-5[8:1],18,
{12}7,5,6,2,4,3,6,5,6,3,4,3,Cf,,,,,,{2},

(95)
{4}2b-6[2:3]b,,,,
{4},,,{16}7,7,5,,
{16}6-4[16:1],6,,3,3,,,2,2-4[16:1],,{8}5,2,6,
{16}7-4[16:1],7,,3,3,,,,

(190)
{16}2,8,2,8,3,7,3,7,4,6,4,6,1-5[8:1],,,,
{8}1b/8b,,37,3-8[8:1]/7-4[8:1],,37,,2/6h[4:1],,8<5[8:1],1>4[8:1],8,1,,78,,
{8}26,3,5,17,,2/8<2[8:3],28,,,1,1,,8,8,17,,
{8}2h[4:1],,4,4h[4:1],,5h[4:1],,7,7-3[8:1],,{4}3-7[8:1],1-5[8:1],18,
{8}46,,12,,6,5,78,,24,,57,,3,4,5/8^5[8:1],,
{16}8/1^4[8:1],,,,14,,,,7,8,7,,{4}6/2-6[8:1],2x/4bh[2:5],,,,
{4},,,,6,6,{24}D6,D7,D8,D1,D2,D3,8b/D4f,,,,,,
{8}5/7-3[8:1],,7,1^4[8:1],,18,,8/7h[4:1],,5,46,3,12,,3,4,
{8}1/5^8[8:1],,5,2-6[8:1],,2/7-3[8:1],,7/1h[4:1],,8,2-5[8:1]/7-4[8:1],,27,,18,,
{8}6h[4:1],,5,4^1[8:1]/8^5[8:1],,{4}48,6x/2x-4[8:1],2/8-6[8:1],8/1-5[8:1],18,{8}37,
{8}37,,28,28,7,5-1[8:1],3,1x,,28,37,46,{16}12,,,45,,,78,,
{4},5b/4b-8[4:9],,,,,,,
{4},,,{12}6,5,4,3,,,,,,{2},
{1},,
{1},,
E

  • Re:MASTER譜面を追加しました。修正等ありましたらよろしくお願いします。 -- けもがみ (2026-11-07 12:46:24)
名前:
コメント:

タグ:

+ タグ編集
  • タグ:
最終更新:2026年11月07日 12:46