| アーティスト |
ARForest feat.nayuta |
BASIC
ADVANCED
EXPERT
MASTER
(200)
{1}E1,E4/E8,Ch[1:2]/E7,E6,E5,E4,E3,{8}E2,6,7,8,1,2,3,4,
{2}5^8[2:1],2h[2:1],1^6[2:1],4h[2:1],5^8[2:1],2h[2:1],{4}1^6[2:1],3,4,5,
{2}6,5h[4:1]/7h[4:1],{8}6h[8:3],,,5h[8:3],,,4,,{2}45,4h[4:1]/2h[4:1],{8}3h[8:3],,,4h[8:3],,,5,,
{2}4^1[2:1]/5,7h[2:1],{4}8^3[2:1],6,5h[2:1],,4^1[2:1],6,7h[2:1],,8^3[2:1],6,5,4,
{2}3,2h[4:1]/4h[4:1],{8}1h[8:3],,,2h[8:3],,,3,,8h[8:3],,,7h[8:3],,,6,,{2}E5f,{16}1,2,3,4,8,7,6,5,
{8}2,24,,3,34,,6,56,,7,5/7-4[8:1],,3-6[8:1],,8,,7,75,,6,65,,3,43,,2,4/2-5[8:1],,6-3[8:1],,1,,
2h[8:3],,,4h[8:3],,,{4}5,,5/6pp5[8:3],4,{8},2h[8:5],{2},{8}4<2[8:3],,,3,,,4,,35,,26,,
7,8,7,2,1,2,7,5,6,2,4,3,5-8[8:1],,45,,2,1,2,7,8,7,2,4,3,7,5,6,4,5^8[8:1],3,2h[8:3],
,,1,2,34,5,26,1,78,6,45,3,12,8-4[8:1],37,4b,,,18,18,7,6,4,3,{2}2>8[4:1]/5h[1:1],{16}D1,D2,D3,D4,D5,D6,D7,D8,
{1}D1f,,{2}4h[2:1],5,6p4[4:3],,3h[2:1],{8}4,,3,3,,4,{4}4,5,6,7^4[2:1],3,2,1,2^5[2:1],6,7,8,
{8}7h[8:3],,,6h[8:3],,,{2}5,{8}4h[4:1]/6h[4:1],,,46,,,2h[8:3],,,3h[8:3],,,{4}4,,3h[4:1],4h[4:1],5h[4:1],
{1}6>8[8:5],3<1[8:5],4>5[4:3],{2}Cf,{16}1,2,3,4,8,7,6,5,
{8}1b-5[8:1],,8,7,46,3,2/4-8[8:1],,2^5[8:1]/4,,12,,{16}8h[16:3],,,7h[16:3],,,6,,
{8}6^3[8:1],,2,1,7,6,1^4[8:1]*^6[8:1]/5,,1,,2x/8x,,{16}3/7h[16:3],,,6h[16:3],,,5,,
{4}5-1[8:1],8,{16}3/7h[16:3],,,6h[16:3],,,5,,{4}5-1[8:1],7,{16}3/7h[16:3],,,6h[16:3],,,5,,
{8}5-1[8:1],,6,6V47[4:1],,2,2-6[8:1],,12,,57,,{16}1h[16:3],,,3h[16:3],,,4,,
{8}4^1[8:1],,4,7^4[8:1],,7,2^7[8:1],,23,,5x/6x,,{16}8h[16:3],,,7h[16:3],,,6,,
{8}6-4[8:1],,6,2-6[8:1],,2,8^3[8:1]*^5[8:1],,8,,1x/7x,,{16}2h[16:3]/6,,,3h[16:3],,,4,,
{4}4-8[8:1],1,{16}2h[16:3]/6,,,3h[16:3],,,4,,{4}4-8[8:1],2,{16}2h[16:3]/6,,,3h[16:3],,,4,,
{8}4-8[8:1],,3,3V52[4:1],,7,7-3[8:1],,87,,1b/2b,,{16}8,7,6,5,8,1,2,3,
{8}4b/8b,,56,4,37,8,12,3,45,6,78,1,{16}2x/6x,5,4,3,2,1,8,7,
{8}2b/6b,,43,5,62,1,87,6,54,3,21,8,{16}7x/3x,4,5,6,7,8,1,2,
{4}7b/3b,5h[4:1]/6,{16}3,2,1^4[8:1]b,8,7,6,5x,,{4},3/5h[4:1],{16}7,8,1^6[8:1]b,2,3,4,5x,,
{4},5h[4:1]/7,{16}2,1,8^3[8:1]b,7,6,5,4x,,{4},56,3-8[8:1]/7-4[8:1],37,
2b/6b,,35,{8}4,4,,6,6,,57,,4>6[16:5]/6,,{2},{8}46,,5,5,,3,3,,2/4-8[8:1],,1,,
7x/8x,6,6,4x/5x,3,3,2x/1x,3,3,5x/4x,6,6,7x-3[8:1]/8x-4[8:1],,7x/8x,,
{16}15,2,3,4,1,8,7,6,{32}2,3,4,5,6,7,8,1,2,3,4,5,6,7,8,1,{1}2bx/6bx,
3>5[4:7]/4h[2:1],6h[2:1],8h[2:1],2h[2:1]/6h[2:1],
{8}35,4,5,6,,3,4,5,,2,3,4,5,3,4,2,7,6,5,4,6,5,4,3,5,{16}3,4,{8}3,2,1,8,7,6,
{2}D5/E5,3^6[8:37]/6h[2:1],{1},E1,C,E5,,,,,E
Re:MASTER
- MASTER譜面を追加しました。修正等ありましたらよろしくお願いします。 -- けもがみ (2026-09-03 17:45:46)
最終更新:2026年09月03日 17:45