アットウィキロゴ

Falling

アーティスト シノ feat.しほ

BPM BASIC ADVANCED EXPERT MASTER Re:MASTER
122 4 7 10 13 -

EXPERT MASTER Re:MASTER
譜面制作者 Jack カマボコ君 -

BASIC


ADVANCED


EXPERT


MASTER

(122){4}1>5[2:1],5,B6/E7,,8<4[2:1],4,B3/E3,,1>5[2:1],5,B6/E7,,8,3<6[4:1],,,5<1[2:1],3,3,3,4bx>8[2:1]b,6,6,6,5<1[2:1],3,3,3,4-1[8:3],5h[2:1],,{8},1/5,2,3/6,4h[8:1]/7h[8:1],,5h[8:1]/2h[8:1],,3/6,7,5/7,4,3h[8:1]/5h[8:1],,6h[8:1]/4h[8:1],,3/5,2,4/6,7,2h[8:1]/8h[8:1],,7h[8:1]/1h[8:1],,
2/6,3,4/8,7,5/6,4,3/5,6,4/7,3,2/6,,

{8}7<4[8:1],,3,2v5[8:1],,6,6,7,{16}7h[16:3],,,6h[16:3],,,5,,{8},4/7,4/7,3,2>5[8:1],,6,7,{16}7h[16:3],,,6h[16:3],,,5,,{8},4/5,4-1[8:1]/5-8[8:1],3/6,,,1x/8x,,2>5[8:1],1,7-4[8:1],8,3,3,2/5,6,7<4[8:1],8,2-5[8:1],1,6,6,7/4,8,8<5[8:1],5,4,3,{16}3h[16:3],,,2h[16:3],,,1,,{8},1/8,1/8,,3/6,3/6,

{4}4/5-7v4q8[8:3],2h[2:1],,1x-7p2p5[2:1],3h[1:1],,{8},,6x,6x,5x,5x,{4}6x/4-2v5p1[8:3],7h[2:1],,8x-2-5[4:1],6h[8:7],,{16}5x,,,4x,,,3x,,3h[16:3],,,2h[16:3],,,1>4[8:1],,{8},5x,5x,6,5/7,4,3/8,7,2/6,1,2,3/5,{16}3/5,,,2/6,,,{8}7<4[8:1]/1,,1,1h[4:1],,4,4,5,5,4/5,3/6,

{8}2>4[8:1]b/7<5[8:1]b,1/8,2b/7b,,1-5[8:1]/8,2,1/7-3[8:1],8,2-8[8:1]/7,1,2/4-8[8:1],5,1>5[4:1]/4,2,1/7,,6,6h[8:3],5,8,4h[4:1],8,5h[4:1],1,3h[4:1],1,6h[4:1],8,4,4,5,4/6,3>8[8:1]/7<4[8:1],2/6,3/7,,1-5[8:1],8,1/7-2[8:1],6,3-6[8:1]/7,4,3/8<5[8:1],7,4>1[8:1]/8,3,4/5-8[8:1],6,1-5[8:1]/5,2,1/8h[4:1],,5-1[8:1],4,5/6>3[8:1],7,2<7[8:1]/6,1,2/4-8[8:1],5,1v3<5[4:1]*v7<5[4:1]/4,2,,,,,{24}4,,4,5,,5,3<4q5<6[2:1],,3,4,,,

{4}5,,8>1-7v5[2:1],2,,4>3p2<1[2:1],5,,6>5-7v1[2:1],2,,{12}4qq5[12:4],,,5,,,,,7,7pp6[12:4],,5,5,,4,,3,,2qq3[12:4],,,4,,,,,6,6,,4,4,,3/5,,2/6,,2/6,,,8<5[4:1],,,1,,1,2<7[4:1],,,3,,3,4>1[4:1],,5,,5,,
7<4[4:1],,,1,,,2<7[4:1],,,4,,4,5>2[4:1],,,7,,7,8<5[4:1],,2,,1x,,8x,,,2/7,,,1>4[4:1],,,8,,8,7>2[4:1],,,6,,6,5<8[4:1],,4,,4,,3<6[4:1],,,2,,,
1>4[4:1],,,7,,7,8<5[4:1],,,2,,2,1>4[4:1],,7,,7,,8h[4:1],,,4>5[8:3]b,,,Cf,,,

{4},,3/6,{8}5/7,6,2<8[8:1]/4,3,6>4[8:1],5,1,1,2/4,3,5/7>1[8:1],6,3<5[8:1],4,8,8,7h[8:1],5h[8:1],4h[8:1],3h[8:1],4,2/5,1/6,,{24}3/5,,,4,,4,6,,6,5,,5,8,,8,6,,6,7,,7,5,,5,4,,4,2,,2,6,,6,8,,8,1,,1,3,,3,4,,4,2,,2,8,,,,,,{32}1-5[8:1],2,3,4,5,6,7,8,{4}1>4[8:1]*<6[8:1],1w5[8:1]b,1b,{8}4x/6x,3,1,6,8<5[8:1],3,

{8}2b>5[8:1]/8b,1,2/6<8[8:1],7,3-6[8:1]/6,4,3/7<4[8:1],8,3b>1[8:1]/7b,2,3/5-2[8:1]*-8[8:1],6,5,,3/7>2[8:1],,3b<6[8:1]/7b,4,3/8-4[8:1],7,3-6[8:1]/8,2,3/7>2[8:1],8,4b-1[8:1]/7b,5,4/8>3[8:1]b*<5[8:1]b,7,8,,2/6,,{4}Ch[4:7]/B8/A8,B1/A1,B2/A2,B3/A3,B4/A4,B5/A5,B6/A6,B7/A7,{8}8b-4[8:1],1,2-5[8:1]/8,3,2b/6b-8[8:1],7,3-1[8:1]/6,2,3b<6[8:1]/7b>2[8:1],6,3/7pp4[8:3],,4b/7b,,3,3,2b>5[8:1],1,2/6-8[8:1],7,3b/6b,3,8-6[8:1],1-3[8:1],8b-4[8:1],1b-5[8:1],8b,1b,A8,B1,B7,B3,B5,A4,E

Re:MASTER


  • MASTER譜面を追加しました。修正等ありましたらよろしくお願いします。 -- Sugar (2026-05-23 21:02:47)
名前:
コメント:

タグ:

+ タグ編集
  • タグ:
最終更新:2026年05月23日 21:02