EASY
BASIC
ADVANCED
EXPERT
MASTER
(208)
{8}57,,4,,24,,5,4,,4,5-1[8:1],,3,,3,4,,4,2-5[8:1],,7,,7,8,,8,6h[4:1],,8h[4:1],,1,,
42,,5,,75,,4,5,,5,4-8[8:1],,6,,6,5,,5,7-4[8:1],,2,,2,1,,1,3h[4:1],,1h[4:1],,8,,
{4}5-8[4:1]/6,6,6,56,4-1[4:1]/6,6,6,46,5-8[4:1]/6,6,6,56,4-1[4:1]/6,6,6,46,
3,34,6,56,3,24,6,57,45,27,36,{8}18,18,{4},,,2-4[8:1],
6,56,56,4-2[8:1]/6,6,16,16,2-4[8:1]/6,6,56,56,4-2[8:1]/6,6,16,45,7-5[8:1],
3,34,34,3/5-7[8:1],3,38,38,3/7-5[8:1],3,34,34,35,{12}6,7,8,1,2,3,{4}45,6-1[8:1],
4,24,24,3-8[8:1]/4,4,47,47,4/6-1[8:1],4,24,24,3-8[8:1]/4,4,47,{8}45,45,{4}3-8[8:1],
5,75,75,6-1[8:1]/5,5,52,52,5/3-8[8:1],5,75,75,6<3[4:3]/5,{1}5b,
{4}8h[4:1],5h[4:1],6h[4:1],7h[4:1],5h[4:3],8,8,8,1h[4:1],4h[4:1],3h[4:1],2h[4:1],4h[4:3],1,1,1,
8h[4:1],5h[4:1],4h[4:1],1h[4:1],4h[4:1],5h[4:1],8<2[4:7],,{2}1h[4:1],1h[4:1],8h[4:1],8h[4:1],
{8}45,,45,,4,5,,5,{1}4^1[4:1]/5^8[4:1],
{4}4^1[8:1]/6,8,5^8[8:1]/3,1,4^1[8:1]/6,8,5^8[8:1]/3,1,4^1[8:1]/6,8,5^8[8:1]/3,1,46,8,53,1^4[8:1],
7,5^8[8:1],3,1^4[8:1],7,5^8[8:1],3,1^4[8:1],7,5,3>6[4:2],6,,,18,46,
5^8[8:1]/3,1,4^1[8:1]/6,8,5^8[8:1]/3,1,4^1[8:1]/6,8,5^8[8:1]/3,1,4^1[8:1]/6,8,53,1,46,8^5[8:1],
2,4^1[8:1],6,8^5[8:1],2,4^1[8:1],6,8^5[8:1],2,4,6<3[4:2],3,,,81,8-4[8:1]/1-5[8:1],
{1},{8},5,5,4,4,5,5,4,
45,6,7,8,2,4,1,3,5,7,8,6,1,3,2,4,5,8,7,6,3,4,2,1,8,7,5,6,4,3,2,,
54,3,2,1,5,7,6,8,{12}3,4,3,2,3,4,5,6,7,6,5,6,{4}6-2[8:1],4,3-7[8:1],6,5-1[8:1],3,4-8[8:1],6,
1h[4:1],4h[4:1],3h[4:1],2h[4:1],4h[4:3],1,3,1,8h[4:1],5h[4:1],6h[4:1],7h[4:1],5h[4:3],8,6,8,
1h[4:1],4h[4:1],5h[4:1],8h[4:1],5h[4:1],4h[4:1],1>7[4:7],,{2}8h[4:1],8h[4:1],1h[4:1],1h[4:1],
{8}54,,54,,5,4,,4,{1}5^8[4:1]/4^1[4:1],
{8}5^8[8:1]/3,,1,1,4^1[8:1]/6,,8,8,5^8[8:1]/3,,1,1,4^1[8:1]/6,,8,8,
5^8[8:1]/3,,1,1,4^1[8:1]/6,,8,8,{4}53,1,46,8^5[8:1],
2,4^1[8:1],6,8^5[8:1],2,4^1[8:1],6,8^5[8:1],2,4,6<3[4:2],3,,,81,53,
{8}4^1[8:1]/6,,8,8,5^8[8:1]/3,,1,1,4^1[8:1]/6,,8,8,5^8[8:1]/3,,1,1,
4^1[8:1]/6,,8,8,5^8[8:1]/3,,1,1,{4}46,8,53,1^4[8:1],
7,5^8[8:1],3,1^4[8:1],7,5^8[8:1],3,1^4[8:1],7,5,3>6[4:2],6,,,18,2/7<2[2:3],
{2}1h[4:1],1h[4:1],8h[4:1],{4}8h[4:1],2>7[2:3],{2}1h[4:1],1h[4:1],8h[4:1],{4}8h[4:1],7<2[2:3],
{2}1h[4:1],8h[4:1],1h[4:1],{4}8h[4:1],2>7[2:3],{2}1h[4:1],8h[4:1],1h[4:1],{4}8h[4:1],6<3[2:3],
{2}5h[4:1],5h[4:1],4h[4:1],{4}4h[4:1],3>6[2:3],{2}5h[4:1],5h[4:1],4h[4:1],{4}4h[4:1],6<3[2:3],
{2}5h[4:1],4h[4:1],5h[4:1],{4}4h[4:1],3>6[2:3],{2}4h[4:1],5h[4:1],4h[4:1],{4}5h[4:1],{1}6b-4[8:1],,,,E
Re:MASTER
- MASTER譜面を追加しました。修正等ありましたらよろしくお願いします。 -- けもがみ (2026-06-02 23:28:44)
最終更新:2026年10月03日 22:28