EASY
BASIC
ADVANCED
EXPERT
MASTER
(174)
{2}7-2[8:1],1-4[8:1],3-6[2:1],,1-6[8:1],6-3[8:1],1-4[2:1],,
{4}7h[4:3],1-5[4:1],,,{1}6-3[8:3]/7-2[8:3],3^8[8:3]/7^4[8:3],{2}2b/7h[2:1],5-1[8:1],
3/4^7[8:1],5^2[8:1],4^7[8:1],5^2[8:1],4^7[8:1],5^2[8:1],4-1[8:1]/5-8[8:1],1^4[8:1]/8^5[8:1],
{8}4h[4:1],3^8[8:1],7h[2:1],,,1,1,,5h[4:1],6^1[8:1],2h[2:1],,,8,8,,
{4}7^4[4:1],4^1[4:1],1^6[4:1],6^3[4:1],{8}3-8[4:1],3-6[8:1],,,,3b/8b,3b/8b,,
1,{4}1-4[8:1],8-5[8:1],7-2[8:1],3-6[8:1],8-4[8:1],5^8[8:1],1^4[8:1],8-5[8:1],
1,45,{8}2,3,6,7,7^2[8:1],,3,,45,27,,
8,{4}8-5[8:1],1-4[8:1],2-7[8:1],6-3[8:1],1-5[8:1],4^1[8:1],8^5[8:1],1-4[8:1],
8,54,{8}7,6,3,2,2^7[8:1],,6,,18,27,,
8,{4}8-5[8:1],1-6[8:1],8-3[8:1],1-4[8:1],8-5[8:1],1-6[8:1],8-3[8:1],1-4[8:1],
8-5[8:1],1-6[8:1],8-3[8:1],{8}1,2,1,8,7,8,1,2,3,
4,{4}4-1[8:1],5-2[8:1],4-7[8:1],5-8[8:1],4-1[8:1],5-2[8:1],4-7[8:1],5-8[8:1],
4-1[8:1],5,{8}8,7,6,27,2/7^2[8:1],,3,,45,{4}4/5-8[8:3],
,,{16}4,5,4,5,{4}4-1[8:3],,,{16}5,4,5,4,{4}5-8[8:3],
,,{16}4,5,4,5,{4}4-1[8:3],,,{16}5,4,5,4,{4}5,
{8}3q5[8:3],,,8,8-4[8:1],,8b,,6p4[8:3],,,1,1-5[8:1],,1b,,
7-3[8:1],7,8-4[8:1],8,1-5[8:1],1,2-6[8:1],2,{4}8b,,,8-5[8:1],
8b/1-5[16:1],1b/7-3[8:1],7b/8-4[8:1],8b/5-8[8:1],
5b/4-8[8:1],4b/6-2[8:1],6b/1-4[8:1],1b/8^5[8:1],
8b/1,45,{8}37,{4}3qq8[8:3]/7qq4[8:3],,,{8}1b/5b,,12,38,,
45,,67,{2}6^1[8:1]/7-2[8:1],3^8[8:1]/2-7[8:1],{8}1b/6b,,45,45,,
{4}1-6[8:1],1-5[8:1],1-4[8:1],,{8}56,5-2[8:1]/6-1[8:1],,56,,27,27,,
{4}8-4[8:1],8h[4:1],1-6[8:1],1h[4:1],8-3[8:1],8h[4:1],1-5[8:1],1h[4:1],
8-4[8:1],8h[4:1],{8}6,{2}5-2[8:1]/6-1[8:1],4-7[8:1]/3-8[8:1],{8}56,47,,
{2}6^1[8:1]/8-3[8:1],3^8[8:1]/1-6[8:1],7^4[8:1]/5-2[8:1],2^5[8:1]/4-7[8:1],
{16}8,7,6,5,8,1,2,3,6,5,4,3,2,1,8,7,{8}62,6-3[8:1]/2-7[8:1],,6b/2b,,15,1^4[8:1]/5^8[8:1],,
{4}1p5[8:1]/5p1[8:1],1^4[8:1]/5^8[8:1],15,8^5[8:1]/4^1[8:1],
8q4[8:1]/4q8[8:1],8^5[8:1]/4^1[8:1],84,1^4[8:1]/5^8[8:1],
1p5[8:1]/5p1[8:1],1^4[8:1]/5^8[8:1],15,8^5[8:1]/4^1[8:1],
8q4[8:1]/4q8[8:1],8^5[8:1]/4^1[8:1],84,2b/6b,
{8}5/6^1[8:1],,2,{4}2^5[8:1],8,3-8[8:1]/7-4[8:1],3b/7b,2b/6b,{8}45,4/5<1[4:1],,
{4}1>5[4:1],5<1[4:1],1>5[4:1],5,{8}1,1w5[8:1],,1b,,37,37,,
{4}1-6[8:1]/2,1-4[8:1]/8,1-5[8:1]/2,18,8-3[8:1]/7,8-5[8:1]/1,8-4[8:1]/7,81,
{2}3q8[8:1]/4^7[8:1],6p1[8:1]/5^2[8:1],{4}34,56,3q8[8:1]/4^7[8:1],,
1v6[4:1],6<2[4:1],2v5[4:1],5>1[4:1],1q6[4:1],6z2[8:3],{2},
1/7^4[8:1],8/2^5[8:1],{8}4h[4:1]/5h[4:1],,,{4}4/5p4[4:1],4>5[2:1]/5,,
,{8},1,8,27,,16,8,7,38,1,2,16,,
{4}8-5[8:1],3,3/5-1[8:1],3,3/1-6[8:1],3,3/6-2[8:1],3,3/2-7[8:1],3,3/7-4[8:1],3,
{8}1^4[8:1],8,7,6^1[8:1],5,4,3^6[8:1],2,
1,8^3[8:1],7,6,5^8[8:1],4,3,2^5[8:1],1,8,7^2[8:1],6,{2}5-1[8:1],
8-4[8:1],4-7[8:1],7-2[8:1],2-5[8:1],{1}5-1[2:1],
{8}3b/6b,2b/7b,4b/5b,{1}1b/8b<1[8:19],,,,E
Re:MASTER
- MASTER譜面を追加しました。修正等ありましたらよろしくお願いします。 -- けもがみ (2026-04-12 19:07:46)
最終更新:2026年10月04日 18:17