EASY
BASIC
ADVANCED
EXPERT
MASTER
(170)
{4}3/6<3[2:1],,,{8}4,4pp8[8:5],{1},{4}6/3>6[2:1],,,{8}5,5qq1[8:5],{1},
{4}2/7<2[2:1],,,1h[4:1],8h[4:1],7h[4:1],6h[4:1],5h[4:1],{1}4>5[4:3]*q5[4:3],{4},,68,17,
{1}2h[4:3]/8-4[2:1],7h[4:3]/1-5[2:1],{4}36,,27,1p8[2:1]/8,18,,,{8}5,4,
{4}3/6<3[2:1],,,4h[4:1],(159)5h[4:1],(137)6h[4:1],(115)7h[4:1],(92)8h[4:1],
(210)1b,18,24,24,36,36,57,57,{16}18,2,3,4,5,6,7,8,1,2,3,4,5,6,7,8,{4}1b/5b,,24,57,
1-5[8:1]/8,12,{12}3,4,3,{8}4,2,15,2,37,6,{2}1-5[8:1]/5,
{4}8-4[8:1]/1,87,{12}6,5,6,{8}5,7,84,7,62,3,{2}8-4[8:1]/4,
{4}1-5[8:1]/8,12,{12}3,4,3,{8}4,2,15,2,37,6,{2}1-5[8:1]/5,
{8}46,46,35,35,46,46,35,35,{4}46,2^5[16:3]/6^1[16:3],2b/6b,,
{8}7/8-3[8:1],,,4,4-7[8:1],,,1,{4}1^4[8:1],7^4[8:1],8-4[8:1],1,
{8}1/2-5[8:1],,,6,6-1[8:1],,,2,{4}2h[4:1],4h[4:1],5h[4:1],7,
{8}3/4-7[8:1],,,8,8-3[8:1],,,5,{4}5^8[8:1],3^8[8:1],4-8[8:1],5,
{8}2h[2:1],,1,8,7h[2:1],,8,1,{4}2,3^6[16:3]/7p2[16:3],37,,
{2}4-1[8:1]/8-5[8:1],3-6[8:1]/7-2[8:1],{8}5,5,1,1,{2}3^8[8:1]/7^4[8:1],
5-8[8:1]/1-4[8:1],6-3[8:1]/2-7[8:1],{4}8h[4:1],6h[4:1],3h[4:1],1,
{2}4-1[8:1]/8-5[8:1],3-6[8:1]/7-2[8:1],{8}5,5,1,1,{4}37,3h[4:1],
1h[4:1],8h[4:1],6h[4:1],5<4[8:5]*p4[8:5],{1}5b,
{4}1/2-4[8:1],12,5-1[8:1]/6,56,8/2-4[8:1],82,5-1[8:1]/6,56,
2^5[4:1],5^8[4:1],8^3[4:1],3^6[4:1],6<3[16:5]*q3[16:5],,,{8}6,5,
{4}6h[4:3],8,8,{8}3,4,{4}3h[4:1],1h[4:1],8h[4:1],6h[4:1],
4qq1[8:5],8,7,6,{4}5b-1[8:1],,37,15,
8/7-5[8:1],87,4-8[8:1]/3,43,1/7-5[8:1],17,4-8[8:1]/3,43,
7^4[4:1],4^1[4:1],1^6[4:1],6^3[4:1],3>6[16:5]*p6[16:5],,,{8}3,4,
3-1[8:1],,7,7-5[8:1],,4,4-8[8:1],,7-1[8:1],,3,3-5[8:1],,6,6-2[8:1],,
1,,{16}3,4,3,,6,5,6,,{4}4>5[2:1]/5<4[2:1],{1}4b/5b,
{4}3-8[8:1]/5,6-1[8:1],4-8[8:1],{8}5qq4[16:5]*pp6[16:5],5,{4},,28,37,
6-1[8:1]/4,3-8[8:1],5-1[8:1],{8}4pp5[16:5]*qq3[16:5],4,{4},,78,16,
2pp5[2:1]/5,6,7,8q4[4:1],4q8[4:1],8>4[4:1],4<8[4:1],8q1[8:3],
{2}1b,{8}3,4,5,6,78,78,12,12,{16}4,5,4,5,{4}4,
1-5[8:1]/8,7,4/6-2[8:1],3,1/4-1[8:1],6,7-3[8:1]/8,1^4[32:5],
1^6[32:5],1q5[32:5],1p5[32:5],1pp5[2:1]*qq5[2:1],1b,,,{8}2,1,
{4}3-6[8:1]/8,38,7-2[8:1]/4,74,1-4[8:1]/6,16,5-8[8:1]/2,52,
{8}13,2,2,68,7,7,{4}1qq6[8:5]/2pp5[8:5],{1}1b/2b,
{4}1-5[8:1]/8,13,{12}2,3,4,{8}1,1,38,2,16,7,{2}1-5[8:1]/8,
{4}8-4[8:1]/1,86,{12}7,6,5,{8}8,8,61,7,83,2,{2}8-4[8:1]/1,
{4}1-5[8:1]/8,13,{12}2,3,4,{8}1,1,38,2,16,7,{2}1-5[8:1]/8,
{4}8-4[8:1]/1,86,{12}7,6,5,{8}8,8,1b-5[8:1],1,8b-4[8:1],8,2b-6[8:1],2,7b,,
{4}3^8[8:1]/4,4,6^1[8:1]/5,5,3^8[8:1]/4,4,6^1[8:1]/5,5,
{12}2,3,4,7,6,5,{8}1,1,8,8,2-6[8:1],2,8-4[8:1],8,1-5[8:1],1,7-3[8:1],7,
2,,4,3,25,6,7,85,4,3,2,1h[8:5]/5,,,{12}7,6,5,
{8}4,,35,35,46,46,35,35,{4}46,1s5[8:1]/8z4[8:1],1b/8b,,5,5w1[8:1],
5b,,,{8}4,4h[8:3],{4},5h[4:1],6h[4:1],7h[4:1],
{1}8-4[2:1],{4}1h[4:1],2h[4:1],3h[4:1],4h[4:1],
{1}5-1[2:1],{2}6h[4:1]/8h[4:1],1h[4:1]/3h[4:1],
{16}7,8,6,,2,1,3,,6,5,7,,3s7[4:1],4,2,,{2}3b,{16}27,,8,1,8,1,8,1,
{4}8-4[8:1],2,5/3-7[8:1],6,8/5-8[8:1],3,2-6[8:1]/1,8^5[32:5],
8^3[32:5],8p4[32:5],8q4[32:5],8qq4[2:1]*pp4[2:1],8b,,,{8}7,8,
{4}6-3[8:1]/1,61,2-7[8:1]/5,25,8-5[8:1]/3,83,4-1[8:1]/7,47,
{8}68,7,68,7,{4}6-4[8:1]/8-4[8:1],6b/8b,{8}31,2,31,2,{4}3-5[8:1]/1-5[8:1],3b/1b,
{8}17,8,8,13,2,2,35,4,4,57,6,6,27,,{1}3bqq5[4:17]/6bpp4[4:17],,,,,,,,E
Re:MASTER
- MASTER譜面を追加しました。修正等ありましたらよろしくお願いします。 -- けもがみ (2026-05-31 17:51:23)
最終更新:2026年10月04日 18:03