EASY
BASIC
ADVANCED
EXPERT
MASTER
(140){1}4h[8:15]/6h[8:15],,
3h[8:15]/5h[8:15],,
4h[4:3]/7p3[2:1],2q6[2:1]/5h[4:3],
4h[4:3]/6p2[2:1],{2}27,{16}57,,,24,,,36,,
3b/6b,,4h[16:9]/5,,,6,,,5,,,6,,,26,,26,,3/4h[16:9],,,2,,,3,,,2,,,15,,
15,,2h[16:9]/4,,,3,,,4,,,3,{8},48,3-6[8:1]/7-2[8:1],,,,36,4,5,4,
{4}3/6-4[8:1],2-5[8:1],8-4[8:1],1-5[8:1],8,{16}36,,4,5,4,,,,27,,,,
2h[16:3],,,3h[16:3],{8},4h[8:1],5,,18,,3,3,6,6,4,5,2b/7b,,
3/4h[8:1],2,3/4h[8:1],2,3/4h[8:1],1,3/4h[8:1],1,3v1[8:1]/4v1[8:1],1,,,2^4[8:1]/7^5[8:1],,27,,
4h[2:1]/5,3,2,1,8-4[8:1],,48,3,57,6,24,3,38,56,38,,
5h[8:1]/6,7,5h[8:1]/6,7,5h[8:1]/6,8,5h[8:1]/6,8,5v8[8:1]/6v8[8:1],8,,,2-5[8:1]/7-4[8:1],,27,,
46,5>1[8:3]/7pp1[8:3],57,,,,,1,37,15,{4}3^8[8:1]/7v4[8:1],37,3b/7b,
3/5h[4:3],3,3p7[8:1],,4h[2:1]/6,6-3[8:1],,26,
5/7h[4:3],5,6q2[8:1],,{8}2,8,3V52[4:1]/7V58[4:1],,,,,,
46,,35,3,1-6[8:1]/3h[4:1],,,,6/8-3[8:1],6,7-2[8:1],,3-6[8:1],,,,
2/8-5[8:1],{16},3,,,4,,1-4[8:1]/7,,,6,{8},5,36,,36,45,{4}2-5[8:1]/7-4[8:1],27,
3pp5[8:1],6qq4[8:1],2p5[8:1],7q4[8:1],1-5[8:1],8>6[4:1],3h[4:1],,
{8}2-5[8:1],2,7-4[8:1],7,2-5[8:1]*-6[8:1],2,,,18,45,18,45,1^4[8:1]/8^5[8:1],,1b/8b,,
3/4h[8:1],2,3/4h[8:1],2,3/4h[8:1],1,3/4h[8:1],1,3v1[8:1]/4v1[8:1],1>6[4:1]*q6[4:1],,,,,27,,
3h[2:1]/4,2,1,8,7-3[8:1],,37,1,57,6,24,3,47,12,47,,
5h[8:1]/6,7,5h[8:1]/6,7,5h[8:1]/6,8,5h[8:1]/6,8,5v8[8:1]/6v8[8:1],8<3[4:1]*p3[4:1],,,,,27,,
35,2q1[8:3]/4<1[8:3],24,,,,,1,26,48,{4}2v5[8:1]/6^1[8:1],26,26,
3>6[8:5]/5h[8:1],4h[8:1],3h[8:1],2h[8:1],{8}8,8,8V64[8:1],,8-4[8:1]*V24[8:1],,8,,
17,{16}8,8,8,,1,1,,8,8,8,{8}8,8V63[4:1],8-3[8:1],,,,1,1,8,8,
1-5[8:1]*V35[8:1],8,,,3-7[8:1]*V57[8:1],2,,,25,35,45,56,57,58,{16}7,7,7,7,
{8}7-3[8:1]*V13[8:1],6,,,1-5[8:1]*V35[8:1],8,,,8V63[4:1],8-3[8:1],,,,{16}4,4,4,4,4,,
{4}4p1[2:1]/5,5,5,5,4/5q8[2:1],4,4,4,
3q6[2:1]/7,7,7,7,3/7q2[2:1],3,3,3,
6qq4[8:1],3pp5[8:1],7q4[8:1],2p5[8:1],8-4[8:1],1p2[4:1]*<3[4:1],,,
{8}18,6,18,3,27,{16}1,8,,,2-4[8:1]/7-5[8:1],,{1}4qq1[2:1]/5pp8[2:1],
{16}68,,,37,{8},25,,,
5/6h[8:1],8,4h[8:1]/5,8,4/5h[8:1],8,3h[8:1]/4,8,3v8[8:1]/4-8[8:1],8>6[4:1]*q6[4:1],,,,,37,,
3h[2:1]/5,4,2,1,8^5[8:1],,58,2,14,2,48,7,25,78,25,,
3h[8:1]/4,1,4/5h[8:1],1,4h[8:1]/5,1,5/6h[8:1],1,5-1[8:1]/6v1[8:1],1<3[4:1]*p3[4:1],,,,,26,,
34,2V41[8:3]/3V58[8:3],23,,,,,27,36,45,{4}2-6[8:1]/7-3[8:1],27,1b/8b,
4-1[8:1]/6-3[8:1],46,{16}4,5,,45,{8},18,56,34,1qq6[4:1]/2pp5[4:1],38,,,,,
3h[4:1]/8h[4:1],,,{16}2,1,2,,2,1,,,56,,{4}1-5[8:1]/2-6[8:1],1^7[8:1]/2^4[8:1],1-5[8:1]/2-5[8:1],1<5[4:1]/2,
2h[4:1],{16},,3,4,2,5,3,4,{8}2>6[4:1],6,6<2[4:1],,2q5[8:3],,,,,6,
7,8qq5[8:3],1pp4[8:3],,,,,7,26,15,48,15,2-5[8:1]/6-1[8:1],,2b/6b,,
1/8h[8:1],5,1h[8:1]/8,4,1/8h[8:1],6,1h[8:1]/8,3,1^4[8:1]/8^5[8:1],27,,,2h[8:1]/7h[8:1],,4b/5b,,
5p1[8:1]/7,7,56,,2/4q8[8:1],2,34,,57,6,24,3,57,16,38,,
4h[8:1]/5,1,4/5h[8:1],8,4h[8:1]/5,2,4/5h[8:1],7,4^1[8:1]/5^8[8:1],36,,,3h[8:1]/6h[8:1],,1b/8b,,
{16}5,4,5,4,6,3,6,3,7,2,7,2,{32}8,7,6,5,4,3,2,1,{4}3-7[8:1]/8-4[8:1],38,{1}3h[8:3]/8h[8:3],,E
Re:MASTER
最終更新:2026年10月05日 22:26