| アーティスト |
COSIO(ZUNTATA/TAITO)/沢城千春「電車でGO!」 |
EASY
BASIC
ADVANCED
EXPERT
MASTER
(134){2}
2^7[4:1],6^3[4:1],2^7[4:1],6^3[4:1],
{4}1h[4:1],3,8h[4:1],6-1[8:1],3-8[8:1],5p2[8:3],,,
{8}47,6,5,6,25,3,4,3,47,6,5,6,25,3,4,3,
16,7,8,7,38,2,8-3[8:1],,1-6[8:1]/8,,1/7-4[8:1],,2-5[8:1]/7,,2b,,
25,3,4,3,47,6,5,6,25,3,4,3,47,6,5,6,
38,2,1,2,16,7,{4}1-6[8:1],1/8-3[8:1],2-5[8:1]/8,2/7-4[8:1],7b,
8-5[4:1],5-2[4:1],2-7[4:1],7-4[4:1],4-1[4:1],1b,{8}8,7,6,5,
24,3,4,1,57,6,5,8,24,3,4,2z6[4:1],,,,,
34,2,8,18,56,7,1,18,{16}1,8,2,7,1,8,{8}2,4-1[8:1]/5-8[8:1],,,,
46,3,7,5,35,6,2,4,27,1^6[8:1]/8^3[8:1],18,,,,3b/6b,4,
5,6,7,8,3-8[8:1]/4-7[8:1],34,,,3^8[8:1],8q4[8:1],4q7[8:3],,,,,,
34,5,56,4,16,34,25,34,56,4,34,5,38,56,3^5[8:1],,
,,6h[8:1]/7h[8:1],,6-3[8:1],,2b,,1-6[8:1],6-2[8:1],2-5[8:1],,8b,8b,8b,,
2h[4:1]/8<3[4:1],,,,1,1,12,,{2}3^6[8:1]/8h[4:1],1h[4:1]/6^3[8:1],
4-1[8:1]/5^2[8:1],6-2[8:1]/7^4[8:1],{8}4-1[8:1],1-6[8:1],6p3[8:3],,,,,,
7,8,78,78,6,1,16,16,5,2,25,25,{16}3,4,3,4,{8}2b/5b,,
7,6,5,4,3,2,1,{16}7,8,7,,3,,4,,5,,6,,7,,8,,2,1,
2,,6,,5,,4,,3,,2,,1,,7,8,{8}7,5,4,3,4,5,6,,
37,3^8[4:1]/7^4[4:1],,,,,,2,2-7[8:1],,,,,7,7q4[4:1],,
,,,8,8,8q6[4:1],,,,,,8,8-3[8:1],,,,
,8,8-3[8:1],3-5[8:1],,,,,3,3>6[4:1],,,,,1b,,
47,{16}6,5,6,,7,,25,,3,4,3,,2,,47,,6,5,6,,7,,25,,3,4,3,,2,,
38,,2,1,2,,3,,16,,7,8,{4}7-4[8:1],2-5[8:1]/7,2/8-3[8:1],1-6[8:1]/8b,1b,
{16}25,,3,4,3,,2,,47,,6,5,6,,7,,25,,3,4,3,,2,,47,,6,5,6,,7,,
16,,7,8,7,,6,,38,,2,1,{4}2-5[8:1],2/7-4[8:1],1-6[8:1]/7,1b/8-3[8:1],8b,
{16}16,,7,8,7,,3,4,3,,7,8,7,,78,,38,,2,1,2,,6,5,6,,2,1,2,,12,,
27,,6,5,6,,3,4,3,,7,8,{4}7-4[8:1],3-8[8:1]/7b,3b/6-1[8:1],2-5[8:1]/6b,2b,
{16}47,,6,5,6,,2,1,2,,6,5,6,,56,,25,,3,4,3,,7,8,7,,3,4,3,,34,,
36,,2,1,2,,7,8,7,,3,4,{4}3-8[8:1],3b/7-4[8:1],2-5[8:1]/7b,2b/6-1[8:1],6b,
4-1[4:1],1-6[4:1],6-4[8:1],,5v2[8:1]/6q2[8:1],,2b,{16}18,18,,2b/7b,
{1},,E
Re:MASTER
最終更新:2026年10月16日 21:41