アットウィキロゴ

デッドレッドガールズ

アーティスト MARUDARUMA

BPM EASY BASIC ADVANCED EXPERT MASTER Re:MASTER
230 2 4 9 10+ 13+ -

EXPERT MASTER Re:MASTER
譜面制作者 rioN はっぴー -

EASY


BASIC


ADVANCED


EXPERT


MASTER

(230)
{1},,
{8}4/5,,,,,{1},,,
{16}4,5,3/6,,,,
{8}4/5,,1,8-3[8:1],,
{4}1-6[8:1],7-4[8:1],2-5[8:1],8-4[8:1],
{8}1,1,,4/5,,8,1-6[8:1],,
{4}8-3[8:1],2-5[8:1],7-4[8:1],
{8}1,1,8,2/7,,4/5,,8,1-6[8:1],,
{4}8-3[8:1],2-5[8:1],7-4[8:1],1-5[8:1],
{8}8,8,,4/5,,1,8-3[8:1],,
{4}1-6[8:1],7-4[8:1],2-5[8:1],
{8}8,8,1,2/7,,4/7,8,3,4,2/5,1,6,5,4/7,6,3,4,2/5,3,6,5,4/7,8,3,4,2/5,1,6,5,4/7,6,3,4,2/5,3,6,5,1/6,8,3,4,2/5,1,6,5,2/6,7,2,1,3/8,2,7,8,1/6,8,3,4,2/5,1,6,5,2/6,7,2,1,3/8,2,7,8,1/8,1/8,1/8,1/8,1/8,1/8,1/8,1/8,1/8,1/8,1/8,1/8,1/8,1/8,1/8,1/8,4,,
{4}4,5,5,4,3,4,5,6,5,4,3,1/2,3/8,4/7,,5,5,4,4,5,6,5,4,3,4,5,6,7/8,1/6,2/5,3b/4b,
{8}1/2,1/2,3/8,3/8,3/8,,5/6,,3,4,,6,5,,
{4}4/7,2-5[8:1],1,7-4[8:1],8,1/2,5/6,3/8,,
{8}7/8,7/8,1/6,1/6,1/6,,3/4,,6,5,,3,4,,
{4}2/5,7-4[8:1],8,2-5[8:1],1,6-8[8:1],3-1[8:1],5-1[8:1],4>5[2:1],,,,5,5<4[2:1],,,,2/7,
{8}8,1-4[8:1],,
{4}5-8[8:1],2-7[8:1],6-3[8:1],
{8}1,1,2,3/8,,
{4}6p3[2:1],,,,2z6[2:1],,,,2/7,
{8}1,8-5[8:1],,
{4}4-1[8:1],7-2[8:1],3-6[8:1],
{8}8,8,7,1/6,,1/8,,3,3-8[8:1],,
{4}7-4[8:1],2-5[8:1],6-1[8:1],
{8}3,3,4,2/5,,1/8,,6,6-1[8:1],,
{4}2-5[8:1],7-4[8:1],3-8[8:1],
{8}6,6,5,4/7,,4/5,,7,7<4[8:1],,
{4}3>8[8:1],5<8[8:1],1>4[8:1],
{32}8,,,,8-4[8:1],,,,,,,,,,,,,,,1-6[8:1]/2-5[8:1],{4},
{8}1/2,,4/7,,6,5,,2,4,3,2/5,,7,8,1/6,,3/8,,1/8,,4,4>1[8:1],,8,8<4[4:1],,
{4}4>8[4:1],8,7-4[8:1],7,2/5,
{8}3,4,,7,5,6,4/7,,2,1,3/8,,1/6,,2/7,,1/5,1q5[8:1]/5q1[8:1],,,,,
{4}3b/7b,,7-4[8:1]/8-3[8:1],7/8,2/5,
{8}3,4,,7,5,6,4/7,,2,1,3/8,,1/6,,1/8,,5,5<8[8:1],,1,1>5[4:1],,
{4}5<1[4:1],1,2-5[8:1],2,4/7,
{8}6,5,,2,4,3,2/5,,1/8,1/8,2/7,2/7,,5,6,4,3,4h[4:1]/5h[4:1],,,4/5,3/6,1/8,1/8,1/8,1/8,
{6}1/8,2/7,3/6,
{16}4,5,4,6,3,,,,
{8}6,,5/7,,2,5,3,4,3q4[8:3],,,,,,,,3,,2/4,,7,4,6,5,6p5[8:3],,,,,,,,7,,6/8,,3,8,2,1,2p1[8:3],,,,,,,,2,,1/3,,6,1,7,8,
{16}7q8[8:3],,,,,,,{2},
{4}7-4[8:1],7/2-5[8:1],2/6-1[8:1],6,2-5[8:1],2/7-4[8:1],7/3-8[8:1],3,7-4[8:1],7/3-8[8:1],3/6-1[8:1],6,2-5[8:1],2/6-1[8:1],6/3-8[8:1],3,6-1[8:1],6/2-5[8:1],2/8-4[8:1],8,3-8[8:1],3/7-4[8:1],7/1-5[8:1],1,6-8[8:1],6/4-2[8:1],4/5-1[8:1],5/4-8[8:1],4/5-7[8:1],
{16}5/3<1[16:7],,,,,{2},
{8}7<4[8:1],8,1,2-5[8:1],,1-6[8:1],,2>5[8:1],,1,8,7>2[8:1],,5,,,2>5[8:1],1,8,7-4[8:1],,8-3[8:1],,7<4[8:1],,8,1,2<7[8:1],,4,,,7<4[8:1],8,1,2>5[8:1],,1v6[8:1],,2>5[8:1],,1,8,7>2[8:1],,5,,,2>5[8:1],1,8,7<4[8:1],,8v3[8:1],,7<4[8:1],,8,1,2-6[8:1],,,,,
{2}4b/5b,,,1b,
{4}1-5[8:1]/2-6[8:1],1/2,4/7,
{8}7,8,,2,4,3,2/5,,7<4[8:1],8,7,,2>5[8:1],1,2,,6,5,,
{24}1,2,3,4,5,6,7,8,1,2,3,4,5,6,7,8,,,,,,
{4}3-7[8:1]/4-8[8:1],3/4,1/6,
{8}2,1,,7,5,6,4/7,,3-6[8:1],4,3,,7-2[8:1],8,7,,3,4,,6,8,7,1b/6b,,,,
{4}7-3[8:1]/8-4[8:1],7/8,2/5,
{8}2,1,,7,5,6,5/7,,2>5[8:1],1,2,,7<4[8:1],8,7,,3,4,,
{24}8,7,6,5,4,3,2,1,8,7,6,5,4,3,2,1,,,,,,
{4}5-1[8:1]/6-2[8:1],5/6,3/8,
{8}7,8,,2,4,3,2/5,,1/8,1/8,2/7,3/6,,4,6,5,7,3,4,2,5,4,2b/7b,,,,,,
{4}4b/5b,7h[4:1],6h[4:1],
{8}5,5q1[4:1],,
{4}1>4[4:1],4q8[4:1],8,
{8}1,1,,3h[4:1],,2h[4:1],,1,1,,3/8,,7-4[8:1],7,3-8[8:1],3,5,5,,2h[4:1],,3h[4:1],,4,4,,6h[4:1],,5,5,,
{4}3/8,4/5,6h[4:1],7h[4:1],
{8}8,8,,2h[4:1],,7,1,8,2/7,,,,2h[4:1],,3h[4:1],,4,4p8[4:1],,
{4}8<5[4:1],5p1[4:1],1,
{8}8,8,,6h[4:1],,7h[4:1],,8,8,,1/6,,2-5[8:1],2,6-1[8:1],6,4,4,,7h[4:1],,6h[4:1],,5,5,,3h[4:1],,4,4,,
{4}1/6,4/5,3h[4:1],2h[4:1],
{8}1,1,,7h[4:1],,2,8,1,2b/7b,
E

Re:MASTER


  • MASTER譜面を追加しました。修正等ありましたらよろしくお願いします。 -- なぎさ (2026-08-15 13:44:42)
名前:
コメント:

タグ:

+ タグ編集
  • タグ:
最終更新:2026年10月03日 22:34