アットウィキロゴ

RIDGE RACER STEPS -GMT remix-

アーティスト Yuji Masubuchi(BNGI)「RIDGE RACER」

BPM EASY BASIC ADVANCED EXPERT MASTER Re:MASTER
240 2 5 8+ 11+ 13 -

EXPERT MASTER Re:MASTER
譜面制作者 はっぴー Jack -

EASY


BASIC


ADVANCED


EXPERT


MASTER

(240){4},,,,,,,,,
56,45,34,{12}2,,1-5[8:1],,,1,{4},34,45,56,{12}7,,8-4[8:1],,,8,{4},
56,45,34,{12}2,,1-5[8:1],,,1,{4},34,45,56,{12}7,,8-4[8:1],,,8,{4},
45,34,23,{12}1,,8-4[8:1],,,8,{4},45,56,67,{12}8,,1-5[8:1],,,1,{4},
45,34,23,{12}1,,8-4[8:1],,,8,{4},45,56,67,{12}8,,1-5[8:1],,,1,{4},

8-4[4:1],4-7[4:1],2<4[2:1],,,,8v5[4:1],8v3[4:1],8-4[4:1],,,,
1-5[4:1],5-2[4:1],7>5[2:1],,,,1v4[4:1],1v6[4:1],1-5[4:1],,,,
8-4[4:1],4-7[4:1],2<4[2:1],,,,8v5[4:1],8v3[4:1],8-4[4:1],,,,
1-5[4:1],5-2[4:1],7>5[2:1],,,,1v4[4:1],1v6[4:1],1-5[4:1],,,,

56,45,34,{12}2,,1-5[8:1],,,1,{4},34,45,56,{12}7,,8-4[8:1],,,8,{4},
56,45,34,{12}2,,1-5[8:1],,,1,{4},34,45,56,{12}7,,8-4[8:1],,,8,{4},
45,34,23,{12}1,,8-4[8:1],,,8,{4},45,56,67,{12}8,,1-5[8:1],,,1,{4},
45,34,23,{12}1,,8-4[8:1],,,8,{4},45,36,46,35,{8}4,3,2,1,

{4}8<1[8:5],,,,3^8[4:1],8^5[4:1],,,37,,6^1[4:1],1^4[4:1],
,,26,,35,1-5[4:1]/8-4[4:1],,,,,{8}5,6,7,8,
{4}1>8[8:5],,,,,,3q5[8:3],7,,6p4[8:3],2,,
{12}2,,3,2,,,14,,,7,,6,7,,,58,,,2,,1,2,,,38,,,7,,8,{4}7,16,
2p3[8:5]/7q6[8:5],,,,6^1[4:1],8^3[4:1],2^5[4:1],,2,,3^8[4:1],1^6[4:1],
6p3[2:1],,,,26,15,4^7[2:1]/8^3[2:1],,,,,,
1b/5b,4b/8b,{12},,47,,,{16}6,5,6,5,{12}6,{4},46,36,26,27,28,12,
1-6[4:1]/2-5[4:1],1b/2b,,7-4[4:1]/8-3[4:1],7b/8b,,1-5[4:1]/8-6[4:1],1b/8b,,1-3[4:1]/8-4[4:1],1b/8b,,

{8}4,5,36,,3,6,4,5,,3,6,2,7,1,,1,5,2,6,3,7,2,{4}8,
17,27,37,48,37,26,36,37,38,26,37,48,
5h[4:1]/7h[4:1],{8},1h[4:1]/6h[4:1],,,{1}2v3[4:9]/3<2[4:9],,
,,,{8},,
,1b/6b,,2b/5b,,,{16}3,4,3,4,3,4,3,4,3,4,3,4,3,,,26,,,15,,,26,,,37,,,48,,,37,,,26,,,
1b/5b,,4b/8b,,,,,4b/8b,,1b/5b,,,{1},{12}2,3,4,7,6,5,1,2,3,8,7,6,{4},
,46,3b/7b,,35,2b/6b,4,{12}8,,6>7[4:9]/7v6[4:9],{1},
,,,

{12}2,,1,,,7,{4}8,1,8,27,{12}6,,5,,,3,4,,6,5,,,3,,,18,,,
7,,8,,,2,{4}1,8,1,27,{12}3,,4,,,7,8,,,5,,6,4,,7,3,,8,
2,,1,,,7,{4}8,1,8,27,{12}3,,4,,,6,5,,4,3,,,6,,,18,,,
2,,1,,,7,{4}8,27,36,45,{12}3,,4,,,6,{4}5,36,27,1b/8b,
{16}4h[16:3],,,5,{12},,4,3,,,{16}5h[16:3],,,4,{12},,5,6,,,{16}3h[16:3],,,4,{12},,3,2,,,{16}6h[16:3],,,5,{12},,6,7,,,
{16}2h[16:3],,,1,{12},,2,3,,,{16}7h[16:3],,,8,{12},,7,6,,,{16}2h[16:3],,,7,{12},,1,8,,,{16}7h[16:3],,,2,{12},,8,{8}1,,
{8}1>5[8:3],,,6>2[8:3],,,1>5[8:3],,,6>2[8:3],,,1>5[8:3],,,6>1[8:3],,,1-5[4:1],,,,,,
8<4[8:3],,,3<7[8:3],,,8<4[8:3],,,3<7[8:3],,,8<4[8:3],,,3<8[8:3],,,{4}8-4[4:1],,,

8,7,16,1,2,38,3,4,25,6,5,47,
2,4,5,7,8,1,3,6,5,4,6,3,
6,5,6,3,4,3,5,5,5,4,4,4,
45,45,36,27,27,1-5[8:1]/8-4[8:1],{1}1b/8b,,,E

Re:MASTER


名前:
コメント:

タグ:

+ タグ編集
  • タグ:
最終更新:2026年10月16日 21:41