アットウィキロゴ

Imitation:Loud Lounge〈スタンダード〉

アーティスト Ino(chronoize)

BPM EASY BASIC ADVANCED EXPERT MASTER Re:MASTER
145 3 5 8 12+ 13 -

EXPERT MASTER Re:MASTER
譜面制作者 rioN Techno Kitchen -

EASY


BASIC


ADVANCED


EXPERT


MASTER

(145){4}
2-7[8:1]/6,28,2/6-3[8:1],46,2-7[8:1]/6,28,2/6-3[8:1],46,
1/8-3[8:1],78,1-6[8:1]/8,12,1/8-3[8:1],78,{8}18,2,12,,
{4}3-6[8:1]/7,35,3/7-2[8:1],17,3-6[8:1]/7,35,3/7-2[8:1],17,
{8}3,34,6,56,3,23,6,67,3,13,6,68,{32}1,2,3,4,5,6,7,8,{16}1b,,,,

7^4[8:1]/8,,,1,,,2,,1/2^5[8:1],,,8,,,7,,7^4[8:1]/8,,,1,,,2,,1/2^5[8:1],,,8,{8},7,
7/8-4[8:1],7/8h[4:1],,,1-5[8:1]/2,1h[4:1]/2,,,1/8^5[8:1],1/8h[4:1],,,1^4[8:1]/8,1h[4:1]/8,,,
7^4[8:1]/8,{16},1,,,2,,1/2^5[8:1],,,8,,,7,,7^4[8:1]/8,,,1,,,2,,1/2^5[8:1],,,8,{8},7,
7/8-4[8:1],7/8h[4:1],,,1-5[8:1]/2,1h[4:1]/2,,,1/8^5[8:1],1/8h[4:1],,,18,18,{16}3,6,3,,
1^6[8:1]/2,,,3,,,4,,3/4^7[8:1],,,2,,,1,,1^6[8:1]/2,,,3,,,4,,3/4^7[8:1],,,2,{8},1,
1/2-6[8:1],1/2h[4:1],,,3-7[8:1]/4,3h[4:1]/4,,,1/2-5[8:1],1/2h[4:1],,,3-8[8:1]/4,3h[4:1]/4,,,
5^2[8:1]/6,{16},7,,,8,,7/8^3[8:1],,,6,,,5,,5^2[8:1]/6,,,7,,,8,,7/8^3[8:1],,,6,{8},5,
5/6-2[8:1],5/6h[4:1],,,7-3[8:1]/8,7h[4:1]/8,,,5/6-1[8:1],5/6h[4:1],,,7-4[8:1]/8,7h[4:1]/8,,,

23,{16},67,,15,,4/8-4[32:5],{8},17,8b,,3h[4:1],1,4h[4:1],1,3h[4:1],1,4,1,
67,{16},23,,48,,1-5[32:5]/5,{8},28,1b,,6h[4:1],8,5h[4:1],8,6h[4:1],8,5,8,
32,{16},67,,15,,4/8-4[32:5],{8},17,8b,,2h[4:1],4,1h[4:1],4,2h[4:1],4,1h[4:1],4,
2h[16:3],{16},6h[16:3],,,1h[16:3],,,5h[16:3],,,8h[16:3],,,4h[16:3],,,7h[16:3],,,3h[16:3],{8},6-2[8:1],1,8b,,

{1}8p6[2:1],6p4[2:1],
4p2[2:1],2p8[2:1],
{4}7<2[2:1],8,7,6,5>8[2:1],6,5,4,
3>6[2:1],4,3,2,1,8,{16}27,,27,,3,6,{8}3,
7-3[8:1],,3-7[8:1],,7-3[8:1],1,1,,2h[16:3],{16},3h[16:3],{8},4h[8:3],,8,8,,
2-6[8:1],,6-2[8:1],,2-6[8:1],8,8,,7h[16:3],{16},6h[16:3],{8},5h[8:3],,1,1,,
7<3[8:1],,3<7[8:1],,7<3[8:1],1,1,,2h[16:3],{16},3h[16:3],{8},4h[8:3],,8,8,,
2>6[8:1],,6>2[8:1],,2>6[8:1],8,8,,7h[16:3],{16},6h[16:3],,,5,,{4},1b,

{24}8-4[8:1],7,6,5,4,,,,,,,,1-5[8:1],2,3,4,5,,{16},,,,6,5,7,4,8,,18,,3,4,2,5,1,,18,,
{24}1-5[8:1],2,3,4,5,,,,,,,,8-4[8:1],7,6,5,{12}4,,,,35,,,18,18,18,{16}2,7,3,6,4,5,4,,
{24}7-3[8:1]/8,6,5,4,3,,,,,,,,1/2-6[8:1],3,4,5,6,,{16},,,,7,5,6,4,5,,13,,2,4,3,5,4,,68,,
{24}1/3-7[8:1],4,5,6,7,,,,,,,,6-2[8:1]/8,5,4,3,2,,{8},,13,,68,,1-6[8:1]/8-3[8:1],27,1b/8b,,
5^2[8:1]/6,{16},7,,,8,,7/8^3[8:1],,,6,,,5,,5^2[8:1]/6,,,7,,,8,,7/8^3[8:1],,,6,{8},5,
4-8[8:1]/5,3/4h[4:1],,,4/5-1[8:1],5h[4:1]/6,,,4-7[8:1]/5,3/4h[4:1],,,4/5-2[8:1],5h[4:1]/6,,,
3/4^7[8:1],{16},2,,,1,,1^6[8:1]/2,,,3,,,4,,3/4^7[8:1],,,2,,,1,,1^6[8:1]/2,,,3,{8},4,
4-8[8:1]/5,3/4h[4:1],,,4/5-1[8:1],5h[4:1]/6,,,4-7[8:1]/5,3/4h[4:1],,,4/5-2[8:1],5h[4:1]/6,,,

1h[8:1]/8h[8:1],{16},36,,24,,5/7-3[32:5],,,68,,7b,,,,1h[8:1]/8h[8:1],,,36,,57,,2-6[32:5]/4,,,13,,2b,,,,
1h[8:1]/8h[8:1],,,27,,13,,6-2[32:5]/8,,,57,,6b,,,,1h[8:1]/8h[8:1],,,2-5[8:1]/7-4[8:1],,36,,2b/7b,{1},,,,E

Re:MASTER


名前:
コメント:

タグ:

+ タグ編集
  • タグ:
最終更新:2026年10月31日 20:41