EASY
BASIC
ADVANCED
EXPERT
MASTER
(182.3){8}
,,,,,3h[8:3],8,1,2,3,4,5,,6h[8:3],1,8,
7,6,5,4,,1h[8:3],8,7,6,1,2,3,,,1,5,
26,,37,,48,,,,18,,3,24,,6,57,,
,,1,,8,,,23,,67,,34,56,,,,
2p5[4:1],,6,6,,,56,,6p1[4:1],,4,4,,,15,,
15,,,48,{4},37,26,,27,,
1p4[4:1]/5^8[4:1],,,,4^1[4:1]/8q5[4:1],,,1-4[4:1]/5-8[4:1],
,,,,1b/8b,,45,{8}2,3p6[8:1],
4,5,,,45,,8v6[8:1],,2h[8:3],,,6,,,26,37,
48,15,,,1^7[8:1],,5^3[8:1],,,,8,4,,,37,26,
15,48,,,45,,1v3[8:1],,7h[8:3],,,3,,,2h[2:1],3,
4,5,6h[2:1],,7,8,1h[4:3],,7,6,5,4,3b,,,,
4,5,,,12,,5,,4,,,78,,,1-5[8:1],,
8,6,,,27,,1,,8,,,18,{4},3h[8:5],
1h[4:3],,,8h[1:1],6h[8:3],,,{8}6,8,
5,,,,24,,68,,45,,48,1b/2b,,,,,
7^2[4:1],,6,5,4-7[4:1],3,2,1,8^5[4:1],1,2,3,4,5,27,,
1p4[4:1],,5,6,7,8,3,,{16}6,5,6,5,,,3,4,{8}3,,27,,
1-5[8:1],,,2-4[8:1],,,6-8[8:1],,,,,{16}2,8,{8}1,7,5,3,
1-3[8:1],,,4-8[8:1],,,3,,8,1,6,3,7,2,5,4,
7-1[8:1],3,4,3,2-8[8:1],6,5,6,7-1[8:1],3,4,3,2-8[8:1],6,5,6,
2,6,3,6,4,8,5,1,{16}3,4,3,4,,,6,5,{8}6,,18,,
1^6[8:1],,,3^8[8:1],,,6^1[8:1],,,,,{16}7,1,{8}8,,2,1,
68,,,35,,,28,,7-4[8:1]/8-3[8:1],,,,1-6[8:1]/2-5[8:1],,,,
7^4[4:1],,8,1,2^7[4:1],3,4,5,6^3[4:1],7,8,1,2,8,{4}1,
1^6[4:1],6^3[4:1],3^8[4:1],8^5[4:1],5^2[4:1],2^8[8:1],,4-7[8:1]/8-3[8:1],
,{8},3^8[16:3]/7^4[16:3],{4},,,,68,35,
2/3p6[8:1],{8},7^2[8:1],,,7,,2,,45,,2b/7b,,,,
1p5[4:1],,6,7,8q5[4:1],4,3,2,1q6[4:1],6,7,8,{4}8p3[8:1],,
1-7[8:1],5-3[8:1],2-6[8:1],,4-8[8:1],6-2[8:1],,,
2-6[8:1]/8b,{8},8-4[8:1],{4},2b,8,,8q5[4:1],5q2[4:1],
3,{8},3,,,3^8[4:1],,8^5[4:1],,5^2[4:1],,2q5[4:1],,,,
8,7,6,1,2,3,7,6,5,2,3,4,8,1,27,,
2,3,7,6,1,2,8,7,4,3,5,6,2,1,{4}7b/8b,
8-2[8:1],4-6[8:1],1-5[8:1],3,5-3[8:1],1-7[8:1],4-8[8:1],1,
{8}1,3,2,4,8,6,7,5,{16}1b,8,2,7,1b,6,3,8,2b,7,1,8,2b,,,,
{1}2z6[8:3],7s3[8:3],
5s1[8:3],{4}4z8[8:3],7,6,5,
8,12,4,56,3,12,7,56,
12,{8}3,4,5,6,7,8,1,{16}3,4,2,,6,5,7,,1,8,{4}1b,
{1},,E
Re:MASTER
最終更新:2026年10月31日 20:33