EASY
BASIC
ADVANCED
EXPERT
MASTER
(120){8}2,1,2,1,3/8,,7,8,7,8,1/6,,1,1,8,8,1,2,3,4,5,6,7,8,{16}1,2,3,4,5,6,7,8,1,2,3,4,5,6,7,8,{8}1/5,2/6,3/7,4/8,1b/5b,,,,
{8}4,5,4,5,2,1,2,1,2>7[4:1],,1,,8,,1,8,7<4[8:1],,8,,2>5[8:1],,1,,7<4[8:1],,8,,2>5[8:1],,1,1,8,7p2[8:1],,8,1,2q7[8:1],,1,8,2,7,3,6,{16}4,5,4,,4/5,,{1}3>5[2:1]/6<4[2:1],{4}4/5,3/6,2/7,1/8,{8}5,4,5,4,7,8,7,8,7<2[4:1],,8,,1,,1/8,,{2}2-7[8:1]/3-6[8:1],7-2[8:1]/6-3[8:1],2q7[8:1]/3<6[8:1],7p2[8:1]/6>3[8:1],{8}1,3v6[8:1],,1,8,6v3[8:1],,8,1,7,2,6,3,{16}5,4,5,,4/5,,{1}6>1[2:1]/3<8[2:1],{4}1/8,2/7,3/6,4/5,
{8}7h[2:1],6,5,4,3,,2h[2:1],1,8,7,6,,5h[2:1],6,7,8,{4}1>4[4:1],4<7[4:1],7>2[4:1],2>5[4:1],5pp1[2:1],,,,{8}2h[2:1],3,4,5,6,,7h[2:1],8,1,2,3,,4h[2:1],3,2,1,{4}8<5[4:1],5>2[4:1],2<7[4:1],7<4[4:1],4qq8[2:1],,,,{8}4/8,3/7,2/6,1/5,1,8,2,7,
{8}1b-4[8:1]*-6[8:1],,,,8,1,7,2,8b-5[8:1]*-3[8:1],,,,,,3/6,2/7,{2}1p4[8:1]/8<5[8:1],8q5[8:1]/1>4[8:1],7<4[8:1]/8p3[8:1],2>5[8:1]/1q6[8:1],{8}8,7,6,5,4,3,2,1,{4}8-5[8:1],8-3[8:1],8-4[8:1],8>2[8:1]*<6[8:1],{1}8bw4[2:1],{8}1/5,2/6,3/7,4/8,8,1,6,3,8b-5[8:1]*-3[8:1],,,,1,8,3,6,1b-4[8:1]*-6[8:1],,,,,,3/6,2/7,{2}1V35[8:1]/8v6[8:1],8V64[8:1]/1v3[8:1],1v7[8:1]/2V46[8:1],8v2[8:1]/7V53[8:1],{8}1,2,3,4,5,6,7,8,{4}1-4[8:1],1-6[8:1],1-5[8:1],1>3[8:1]*<7[8:1],{1}1bw5[2:1],{8}4/8,1/5,2/6,3/7,{1}4qq1[2:1]/8qq5[2:1],
{1}1pp4[2:1]/5pp8[2:1],{8}2/7,,1,8,2-5[8:1],,7-4[8:1],,3-8[8:1],,6-1[8:1],,{1}4>5[2:1],{8}4,4,5,5,3,3,6,6,1/2,,7/8,,3/4,,5/6,,{1}1>8[2:1]/8<1[2:1],{8}1/8,2/7,3/6,4/5,1-5[8:1],,1>4[8:1]*<6[8:1],,
{8}1b,,,,8-4[8:1],,8<5[8:1]*>3[8:1],,8b,,2/7,2/7,,,1/8,1/8,{4}1-6[8:1]/2-5[8:1],1/2,8-3[8:1]/7-4[8:1],8/7,{1}1b>8[2:1]/8b<1[2:1],{8}1,1,8,8,2,2,7,7,{4}1-4[8:1]*-6[8:1],1,8-5[8:1]*-3[8:1],8,{1}1pp4[2:1]/8qq5[2:1],{8}1/5,2/6,3/7,4/8,1/5,8/4,3/7,2/6,1bw5[4:7]/5,E
Re:MASTER
- MASTER譜面を追加しました。修正等ありましたらよろしくお願いします。 -- Sugar (2026-08-10 17:27:56)
最終更新:2026年10月04日 18:05