アットウィキロゴ

ラブチーノ

アーティスト Junky

BPM EASY BASIC ADVANCED EXPERT MASTER Re:MASTER
126 2 4 8 9+ 11+ -

EXPERT MASTER Re:MASTER
譜面制作者 某S氏 rioN -

EASY


BASIC


ADVANCED


EXPERT


MASTER

(126){4}3qq5[8:3]/6pp4[8:3],,,36,
{16}17,,8^3[8:1]*^5[8:1],1,,,,,,,2,,1,,8,,7h[8:1],,6^3[8:1],7,,,,,,,5,,6,,7,,
28,,1^4[8:1]*^6[8:1],8,,,,,,,7,,8,,1,,2h[8:1],,3^6[8:1],2,{8},,,,18,18,
2h[8:3],,,3,4,1,2,8,7-2[8:1],,,3-6[8:1],,,8,,
8<4[4:1],,4>8[4:1],,8<4[4:1],,4qq4[4:1]*pp4[4:1],,,,,,27,{16}8,1,{8},3b/6b,

2^5[8:1]/7,,,,4h[16:1]/5h[16:1],5h[16:1]/6h[16:1],4h[16:1]/5h[16:1],34,1^6[8:1]/2,,4,,5p1[8:1]/6,,7,,
7^4[8:1]/8,,2,,45,34,45,56,{4}7/8^3[8:1],5,3/4q8[8:1],2,

1q5[4:1]*p5[4:1],,,2/7h[4:1],6qq3[8:3],,,2h[4:1]/7,
3pp6[8:3],,,68,1/3V14[8:3]*pp4[8:3],,,27,
3h[4:3]/4>5[2:1],,,,5<4[2:1]/6h[4:3],,,,
3/4^7[8:1],2,1,7pp2[2:1]/8,,,,12,

{16}3h[16:3],,,5h[16:3],,,4,,4^2[8:1],,,,7,,,,6h[16:3],,,4h[16:3],,,5,,5^7[8:1],,,,2,,,,
2h[16:3],,,4h[16:3],,,3,,3^1[8:1],,,,8,,,,7h[16:3],,,5h[16:3],,,6,,6^8[8:1],,,,1,,,,
2h[16:3],,,4h[16:3],,,3,,3^8[8:1],,,,6,,,,7h[16:3],,,5h[16:3],,,6,,{4}6^1[8:1],3,
4>5[8:3],,,36,{16}24,,,57,,,3b/6b,,,,8,,7,,6,,

35,,4^1[8:1]*^7[8:1],5,,,,,,,7,,8,,1,,2h[8:1],,3^6[8:1],2,,,,,,,1,,2,,3,,
46,,5^2[8:1]*^8[8:1],4,,,,,,,2,,1,,8,,7h[8:1],,6^3[8:1],7,,,,,,,8,,7,,6,,
1h[16:3],,,4h[16:3],,,5^2[8:1],,,,6,,7,,8,,8h[16:3],,,5h[16:3],,,{4}4^1[4:1],1^6[4:1],6^3[4:1],
3^8[4:1],8,{8}5,45,,3bqq5[8:3]/6bpp4[8:3],,,,,,36,,

27,,34,25,,8,1,2,3h[16:3],{16},4h[16:3],,,5h[4:1],,,,1,,8,,7,,
6h[16:3],,,5h[16:3],,,4h[4:1],,,,8,,1,,2,,3h[16:3],,,4h[16:3],,,5h[4:1],,,,1,,8,,7,,
4h[8:1]/5h[8:1],,,,27,,,,2,4,3,5,4,6,5,7,{8}4bqq4[4:1]*pp4[4:1],,,,,,26,,
7,7,78,78,2,2,12,12,8-4[8:1],8,2-6[8:1],2,7-3[8:1],7,1b,1b,
8h[8:3],,,6,6h[8:3],,,5,5h[8:3],,,3,3h[4:1],,4h[4:1],2,
1h[8:3],,,3,3h[8:3],,,4,4h[8:3],,,6,6h[4:1],,5h[4:1],7,
8p4[8:1],,,2,1q5[8:1],,7,,1b/8b,,,,,7,1,3,

46,{16}5V31[8:1]*v8[8:1],4,,,,,,,3,,4,,5,,7h[8:1],,6<2[8:1],7,,,,,,,2,,8,,6,,
35,,4v1[8:1]*^7[8:1],5,,,,,,,6,,5,,4,,2h[8:1],,3>7[8:1],2,,,,,,,7,,1,,3,,
46,,5^2[8:1]*^8[8:1],4,,,,,,,6,,7,,8,,1h[16:3],,,4h[16:3],,,{4}5^8[4:1],8^3[4:1],3^6[4:1],
6^1[4:1],1,{16}4,,45,,,,18,,,24,,,57,,36,,1,8,,,3qq5[8:7]/6pp4[8:7],,
{4},,,,,4-1[8:1]/5-8[8:1],,2b/7b,

45,27,{16}7,5,6,4,5,3,4,2,{4}5bqq5[4:1]*pp5[4:1],,,37,
1^4[8:1]/8^5[8:1],,{8}3,34,6,56,45,4-8[8:1]/5-1[8:1],,,,,27,,
{1}2qq4[2:1]/5pp3[2:1],4qq6[2:1]/7pp5[2:1],
3qq5[2:1]/6pp4[2:1],36,,E

Re:MASTER


名前:
コメント:

タグ:

+ タグ編集
  • タグ:
最終更新:2026年10月03日 08:12