アットウィキロゴ

Technicians High〈スタンダード〉

アーティスト HiTECH NINJA

BPM BASIC ADVANCED EXPERT MASTER Re:MASTER
165 4 7+ 11 13+ -

EXPERT MASTER Re:MASTER
譜面制作者 隅田川星人 シチミヘルツ -

BASIC


ADVANCED


EXPERT


MASTER

(165){1},
{4}4/5h[4:3],6,6,6,4h[2:1]/5,3,3-5[8:1],,
4/5h[4:3],7,7,7,4h[2:1]/5,2,2-4[8:1]*-5[8:1],,
{8}7-5[8:1],7,4-2[8:1],4,7-4[8:1],7,1,,2-4[8:1],2,5-7[8:1],5,2-5[8:1],2,8,,
56,47,,,34,25,{4},1-5[8:1],1w5[8:1],1,37,
18,36,{16}17,,8,1,,1,3,,3,5,,5,7,,17,,28,,6,5,,5,3,,
3,1,,1,7,,46,,1,,34,,56,,78,,6,5,,5,{8}4,12,38,47,56,,
18,,36,,28,{16}1,8,,8,6,,6,4,,4,2,,28,,17,,3,4,,4,6,,
6,8,,8,{8}2,35,8,56,34,12,{4}3>4[4:1]/8,,,15,

{8}2v4[8:1],4p7[8:1],6,,5-8[8:1],5,1,,7v5[8:1],5q2[8:1],3,,4-1[8:1],4,8,,
2v4[8:1],4p7[8:1],6,,5-8[8:1],5,1,,{16}2,1,2,1,3,4,3,4,2,5,3,6,{8}4h[8:1],1b,
3v1[8:1],1q6[8:1],7,,8-4[8:1],8,2,,6v8[8:1],8p3[8:1],2,,1-5[8:1],1,7,,
3v1[8:1],1q6[8:1],7,,8-4[8:1],8,2,,{16}7,8,7,8,6,5,6,5,7,8,1,2,{4}3b,

2<3[4:39],,6,,{16}5,,,5,,,5,,{2}4,
2,1,{16}7,,,7,{8},7,6,,,,
5h[4:1],,,4h[4:1],,,2h[4:1],,,1h[4:1],,,8h[4:1],,,7h[8:1],
,8,8h[4:1],,,1,1h[4:1],,,2,2h[4:1],,,1,1,,
8h[4:1],,,7h[4:1],,,6h[4:1],,,5h[4:1],,,4,,5-8[16:1],,
{1}5,{16}6,5,6,3,4,3,8,1,7,2,5,4,8b-3[8:1],,,,

4,,5,5,,,48,,25,,3,4,2-7[8:1],4,3,,6-3[8:1],,5,,1-6[8:1],,2,,16,,5,,3-7[8:1],4,3,4,
3,,1,1,,,48,,16,,7,8,6-1[8:1],8,7,,3-8[8:1],,2,,5,,4,,26,,,,3,4,3,4,
{8}2^7[8:1],8,4-8[8:1],5,6^3[8:1],7,1-7[8:1],2-6[8:1],1-5[8:1],2,1,2,37,,{16}6-1[8:1],5,6,,
3-6[8:1],,2,,8-4[8:1],,7,,6,,5,,2,1,2,1,38,,2,4,3,8,1,7,3,5,4,6,1b-6[8:1],,,,
5,,4,4,,,15,,47,,6,5,7-4[8:1],5,6,,3-8[8:1],,2,,5-1[8:1],,6,,25,,3,,6-2[8:1],5,6,5,
6,,8,8,,,15,,38,,2,1,3-8[8:1],1,2,,6-1[8:1],,7,,4,,5,,37,,,,6,5,6,5,
7h[16:3],,,8,7,,16,,2,3,4,5,2,3,4,5,2h[16:3],,,1,2,,38,,7,6,5,4,7,6,5,4,
7h[16:3],,,8,7,,16,,2,1,8,7,2,1,8,7,1h[16:3],,,4,{8}3,25,36,47,{4}5/8<4[4:1],
4>8[4:1],8<4[4:1],4>8[4:1],8<4[4:1],4>8[4:1],8<4[4:1],4,1,
{16}38,,2,1,,1,2,,16,,7,8,,8,7,,3,4,3,6,5,6,1,8,2,7,4,5,{4}2b/7b,

23,67,{16}2h[8:1]/4h[8:1],,,4h[8:1]/5h[8:1],{8},5h[8:1]/7h[8:1],,78,16,25,47,{24}47,36,25,{8}14,78,
16,,38,,2h[8:1]/4h[8:1],{16},4h[8:1]/5h[8:1],{8},5h[8:1]/7h[8:1],,1s5[8:1]/8,{4}18,,,
67,23,{16}5h[8:1]/7h[8:1],,,4h[8:1]/5h[8:1],{8},2h[8:1]/4h[8:1],,12,38,47,25,{24}25,36,47,{8}58,12,
38,,16,,5h[8:1]/7h[8:1],{16},4h[8:1]/5h[8:1],,,2h[8:1]/4h[8:1],,,,28,,28,,,,1,1,1,1,1,1,1,1,
{4}1V35[8:1],,1V75[8:1],,1-4[8:1],1-6[8:1],1,1V35[4:1]/8,
5V71[4:1],1V35[4:1],5V71[4:1],1V37[4:1],5,1-4[8:1]*-6[8:1],1,37,

{16}2-5[8:1]/8,,1,8,2,,1,,37,,6,57,,3,24,,1/7-4[8:1],,8,1,7,,8,,26,,3,24,,6,57,,
{4}1w5[8:1],,8w4[8:1],,1^4[8:1]*^6[8:1],1-5[8:1]*s5[8:1],1,37,
18,36,{16}28,,1,8,,8,6,,6,4,,4,2,,12,,18,,3,4,,4,6,,
6,8,,8,2,,23,,45,,67,,18,,24,,3,3,3,3,{8}3,28,17,45,2h[8:1]/7h[8:1],,
18,,36,,17,{16}8,1,,1,3,,3,5,,5,7,,78,,18,,6,5,,5,3,,
3,1,,1,7,,67,,45,,23,,18,,57,,8,1,{8},23,23,14,58,6-2[16:1]/7-3[16:1],58,
{1}6b>7[4:11]/7b>6[4:11],,,,,E

Re:MASTER


名前:
コメント:

タグ:

+ タグ編集
  • タグ:
最終更新:2026年09月28日 18:40