アットウィキロゴ

ナミダと流星〈スタンダード〉

アーティスト 芳川よしの

BPM EASY BASIC ADVANCED EXPERT MASTER Re:MASTER
190 2 5 8 10+ 12 -

EXPERT MASTER Re:MASTER
譜面制作者 Revo@LC mai-Star -

EASY


BASIC


ADVANCED


EXPERT


MASTER

(190){8}3,4,5,6,7<4[4:1],,2,2,,2,1,8,7,6,5,4,,6,7,8,1<6[4:1],,3,3,,3,4,5,7,6,5,4,,1h[8:3],8,7,6<1[4:1],,3,3,,1,8,7,6,5,4,3,,3h[8:3],4,5,6h[4:1],,8,1,,7,6,5,7,8,1,2,,,1h[8:5],,2,,4,4>8[16:5],,,,,,5,6,7,,8,7,6q3[2:1],{1},{8}3h[8:3],,,6,,2>4[8:1],1,2,,7<5[8:1],8,7,,3<5[8:1],4,3,,6>4[8:1],5,6,,8,7,2,,
{4}1-4[16:3],4-1[16:3],1-6[16:3],
{8}6-1[16:3],,,,,8b,,2h[4:1],7,5h[4:1],,8,4-6[8:1]/8-2[8:1],,,,,,4-6[8:1]/8-6[8:1],,,,6-2[8:1],,,{1},{8}3h[8:3],,,6,,2-4[8:1],1,2,,7-5[8:1],8,7,,3-5[8:1],4,3,,6-4[8:1],5,6,,1-5[8:1],7,7,,4,,6h[8:3],,,
{4}1-6[8:1],8-3[8:1],,
{8}1b,,,3>8[16:3],,,5,,7,,,5<8[16:3],,,3,,1,,,7>2[16:3],,,5,,7,,,1<6[16:3],,,
{4}3,1h[4:1]/5h[4:1],,
{2}3h[4:1]/7h[4:1],2h[4:1]/6h[4:1],4h[4:1]/8h[4:1],
{8}2,3,4,5,1,8,7,6,3-5[8:1],,1,1-7[8:1],,2,2-6[8:1],,,,,,
{4}1-5[8:1],,8-6[8:1],2-4[8:1],1-5[8:1],,1-3[8:1],7-5[8:1],8-4[8:1],,2<8[8:1],7<5[8:1],3>8[8:1],,5-8[4:1],5,,
{2}1-3[8:1]/2h[4:1],7h[4:1]/8-6[8:1],2h[4:1]/3-1[8:1],6-8[8:1]/7h[4:1],
{4}7<4[4:1],4>1[4:1],1<6[4:1],6>3[4:1],3-7[4:1],7>2[4:1],2>5[4:1],5<7[16:3],1b,8-6[8:1],2-4[8:1],1-5[8:1],,1-3[8:1],7-5[8:1],8-4[8:1],,7-5[8:1],8-4[8:1],1-3[8:1],,1>3[8:1]/5<7[12:1],,,
{2}1h[4:1]/2>4[8:1],7<5[8:1]/8h[4:1],2<8[8:1]/3h[4:1],6h[4:1]/7>1[8:1],
{4}8-4[8:1],1-5[8:1],7-4[8:1],2-5[8:1],,5,3/6,4-1[4:1],5-8[1:1],{1},,
{2}1h[2:1],3h[2:1],5h[2:1],
{8}7,5,7,5,,,8h[8:5],,7,,5,5<1[16:5],,,,,,4,3,2,,1,2,3p6[2:1],{1},{8}6h[8:3],,,3,,7<5[8:1],8,7,,2>4[8:1],1,2,,6>4[8:1],5,6,,3<5[8:1],4,3,,1,2,7,,
{4}8-5[16:3],5-8[16:3],8-3[16:3],
{8}3-8[16:3],,,,,1b,,7h[4:1],2,4h[4:1],,1,1-7[8:1]/5-3[8:1],,,,,,1-3[8:1]/5-3[8:1],,,,3-7[8:1],,,{1},{8}6h[8:3],,,3,,7-5[8:1],8,7,,2-4[8:1],1,2,,6-4[8:1],5,6,,3-5[8:1],4,3,,8-4[8:1],2,2,,5,,3h[8:3],,,
{4}8-3[8:1],1-6[8:1],,
{8}8b,,,6<1[16:3],,,4,,2,,,4>1[16:3],,,6,,8,,,2<7[16:3],,,4,,2,,,8>3[16:3],,,
{4}6,4h[4:1]/8h[4:1],,
{2}2h[4:1]/6h[4:1],3h[4:1]/7h[4:1],1h[4:1]/5h[4:1],
{8}7,6,5,4,8,1,2,3,6-4[8:1],,8,8-2[8:1],,7,7-3[8:1],,,,,,
{4}1-4[8:1]/5-8[8:1],,3-5[8:1],2-6[8:1],1-7[8:1],,6-4[8:1],7-3[8:1],8-2[8:1],,2-4[8:1],1-5[8:1],8-6[8:1],,
{8}7-4[8:1],2-5[8:1],,,,,
{2}1-3[8:1]/2h[4:1],7h[4:1]/8-6[8:1],2h[4:1]/3-1[8:1],6-8[8:1]/7h[4:1],
{4}6>3[4:1],3>8[4:1],8<5[4:1],5>2[4:1],2<7[4:1],7<4[4:1],4>1[4:1],1-5[4:1],,2-4[8:1],1-5[8:1],8-6[8:1],,7-5[8:1],8-4[8:1],1-3[8:1],,1-3[8:1],4-8[8:1],7-5[8:1],8z4[8:3],,,,
{2}1h[4:1]/2>4[8:1],7<5[8:1]/8h[4:1],2<8[8:1]/3h[4:1],6h[4:1]/7>1[8:1],
{4}1-5[8:1],8-4[8:1],2-5[8:1],7-4[8:1],,5,3/6,4-1[4:1],
{16}5-8[1:1],{1},,{16}6,5,4,3,
E

Re:MASTER


  • MASTER譜面を追加しました。修正等ありましたらよろしくお願いします。 -- なぎさ (2026-08-14 19:36:02)
名前:
コメント:

タグ:

+ タグ編集
  • タグ:
最終更新:2026年10月04日 18:18