EASY
BASIC
ADVANCED
EXPERT
MASTER
(150){4}1,1,1,1b,
{16}45,,3,,4h[4:1]/5,,,,6,4,,3,5,,,,45,,6,,4/5h[4:1],,,,3,5,,6,4,,,,
45,,3,,4h[4:1]/5,,,,6,4,,3,{12}5,,,1,1,1,8,8,8,{8}2b/7b,,,,
3-8[8:1]/4,34,,,5/6-1[8:1],56,,,3-8[8:1]/4,34,,,57,6,24,3,
7^4[8:1]/8,78,,,1/2^5[8:1],12,,,7^4[8:1]/8,78,,,12,3,78,6,
1/3^6[8:1],13,,,6^3[8:1]/8,68,,,1/3^6[8:1],13,,,47,6,25,3,
4/7^2[8:1],47,,,2^7[8:1]/5,25,,,4/7^2[8:1],47,,,34,1,56,8,
2b/7b,,4/5h[4:1],,{16}3,4,,6,5,,,,45,,3,,4h[4:1]/5,,,,6,5,,3,4,,,,
45,,6,,4/5h[4:1],,,,3,4,,6,{12}5,,,8,8,8,1,1,1,{8}2b/7b,,,,
2h[16:11]/5,5,4,4,3,{16}3,3,,,,,4/7h[16:11],,4,,5,,5,,6,,6,6,,,,,
3h[16:3]/5,,4,4,,,,,4/6h[16:3],,5,5,{8},,3h[2:1]/4,4,5,5,6h[8:1],5h[8:1],4h[8:1],3,
2h[16:11]/6,6,5,5,4,{16}3,3,,,6,,3/7h[16:11],,3,,4,,4,,5,,6,6,,,3,,
2h[16:3]/4,,3,3,,,6,,5/7h[16:3],,6,6,{8},45,3h[8:1],4h[8:1],5h[8:1],6h[8:1],4-8[8:1],,1b,,
3-8[8:1]/6,6,7b,,3-8[8:1]/5,5,7b,,3-8[8:1]/4,4,5,5,3-8[8:1]/6,6,7b,,
3/6-1[8:1],3,2b,,4/6-1[8:1],4,2b,,5/6-1[8:1],5,4,4,3/6-1[8:1],3,2b,,
2h[2:1],3,4,5,6h[2:1],7,8,1,2h[2:1],1,8,7,6h[2:1],5,4,3,
2-6[8:1],2,1b,,7-3[8:1],7,8b,,1,8,2v3[8:1]/7v6[8:1],,27,,1b/5b,,
6^3[8:1]/8,8,1,1,{16}2,4,2,,1b/5b,,,,1/3^6[8:1],,1,,8,,8,,7,5,7,,4b/8b,,,,
6^3[8:1]/8,,8,,1,,1,,2,4,2,,1b/5b,,,,28,,28,,17,,17,,6,5,,3,4,,,,
2^7[8:1]/4,,4,,5,,6,,7,8,7,,1b/6b,,,,5/7^2[8:1],,5,,4,,3,,2,1,2,,3b/8b,,,,
6,5,6,5,7h[8:1],,8,,3,4,3,4,2h[8:1],,1,,{4}4w8[4:1]/8b,,,26,
{16}45,,3,,4h[4:1]/5,,,,7,5,,2,4,,,,45,,6,,4/5h[4:1],,,,2,4,,7,5,,,,
45,,3,,4h[4:1]/5,,,,7,5,,2,{12}4,,,6,6,6,3,3,3,{8}4-8[8:1]/5-1[8:1],,,,
18,7,1/8h[4:1],,{16}3,1,,6,8,,,,18,,2,,1h[4:1]/8,,,,6,8,,3,1,,,,
18,,7,,1/8h[4:1],,,,3,1,,6,{12}8,,,1,1,1,8,8,8,{8}2b/7b,,,,
1-5[8:1]/6,6,6,6,5-2[8:1]/6,6,,,2-7[8:1]/6,6,6,6,6/7-4[8:1],6,,,
4^1[8:1]/6,6,6,6,1-5[8:1]/6,6,,,5p3[8:3]/6,6,6,6,6^4[8:1],,,,
3/8-4[8:1],3,3,3,3/4-7[8:1],3,,,3/7-2[8:1],3,3,3,2-5[8:1]/3,3,,,
3/5^8[8:1],3,3,3,3/8-4[8:1],3,,,{12}1,1,1,5,5,5,{8}2b-7[8:1]/6b-3[8:1],,,,
6^3[8:1]/8,8,1,1,{16}2-6[8:1],4,2,,8b,,,,5/7^2[8:1],,5,,4,,4,,3-7[8:1],1,3,,8b,,,,
6^3[8:1]/8,,8,,1,,1,,2-6[8:1],4,2,,8b,,,,4/7^2[8:1],,4,,3,,3,,4,5,,5,4,,,,
3,4,3,4,2,5,2,5,1,6,1,6,7b/8b,,,,2,1,2,1,3,8,3,8,4,7,4,7,5b/6b,,,,
1,5,1,5,2,6,2,6,3,7,3,7,4,8,4,8,{4}1b/5w1[4:1],,,37,
{16}45,,6,,4/5h[4:1],,3,,2,4,,7,5,,,,45,,3,,4h[4:1]/5,,6,,7,5,,2,4,,,,
45,,6,,4/5h[4:1],,3,,2,4,,7,{12}5,,,45,45,45,36,36,36,{2}2b/7b,
{16}3-8[8:1]/4,,5,5,,,,,5/6-1[8:1],,4,4,,,,,3-8[8:1]/4,,5,5,,,,,57,,6,,24,,3,,
7^4[8:1]/8,,1,1,,,,,1/2^5[8:1],,8,8,,,,,7^4[8:1]/8,,1,1,,,,,12,,3,,78,,6,,
1/3^6[8:1],,8,8,,,,,6^3[8:1]/8,,1,1,,,,,1/3^6[8:1],,8,8,,,,,47,,6,,25,,3,,
4/7^2[8:1],,5,5,,,,,2^7[8:1]/5,,4,4,,,,,4/7^2[8:1],,5,5,,,,,34,,1,,56,,8,,
2b/7b,,,,1h[4:1]/8,,7,,6,8,,3,1,,4,,18,,7,,1/8h[4:1],,2,,3,1,,6,8,,5,,
18,,2,,1h[4:1]/8,,7,,6,8,,3,1,,4,,{12}18,18,18,27,27,27,45,45,45,3qq5[16:7]/6pp4[16:7],36,36,
{1}3b/6b,,E
Re:MASTER
最終更新:2026年10月03日 23:01