BASIC
{1}4,4,5,5,
{2}4,4,
{1}3,
{2}2,2,
{1}8/1,
{2}8,8,
{1}7,
{2}6,6,
{1}5/4,
{2}5,5,6,6,7,7,
{1}8/1,
{2}1,1,2,2,3,3,
{1}5/4,B4,B3,B2,B1,B8,B7,B6,B5,C1,,
{4}1bx,1,
{2}1,2,2,3,3,
{1}5/4,
{4}5,5,
{2}5,6,6,7,7,
{1}8/1,
{4}8,8,
{2}8,7,7,6,6,5/4,5/4,
{4}4,4,
{2}4,3,3,2,2,
{1}8x/1x,1-5[4:3],,8-4[4:3],,2-6[4:3],,7-3[4:3],,2h[1:1]/1h[1:1],,4h[1:1]/3h[1:1],,6h[1:1]/5h[1:1],,7h[1:1]/8h[1:1],,
{4}8bx,8x,
{2}8x,7,7,
{4}6,6,
{2}6,
{1}5/4,
{4}4,4,
{2}4,3,3,
{4}2,2,
{2}2,
{1}1h[1:1]/8h[1:1],,
{4}1,1,
{2}1,
{4}2,2,
{2}2,
{4}3,3,
{2}3,5/4,5/4,
{4}5,5,
{2}5,
{4}6,6,
{2}6,
{4}7,7,
{2}7,
{1}8b/1b,
{4}8,8,
{2}8,
{4}7,7,
{2}7,
{4}6,6,
{2}6,5/4,5/4,
{4}4,4,
{2}4,
{4}3,3,
{2}3,
{4}2,2,
{2}2,
{1}8b/1b,E1,B1/B8,B7/B2,B3/B6,B4/B5,B3/B6,C1h[2:3],
{1},,,E
ADVANCED
{1}2-5[4:3],,7-3[4:3],,1-5[4:3],,7-4[4:3],,
{4}4,4,
{2}4,
{4}3,3,
{2}3,
{4}2,2,
{2}2,1/8,1/8,
{4}8,8,
{2}8,
{4}7,7,
{2}7,
{4}6,6,
{2}6,5/4,5/4,
{4}5,5,
{2}6,
{4}7,7,
{2}8,
{4}1,1,
{2}2,
{4}3,3,
{2}3/4,
{4}4,4,
{2}3,
{4}2,2,
{2}1,
{4}8,8,
{2}7,
{4}6,6,
{2}6/5,6h[2:1],5,6/5,6/5,7h[2:1],8,7/8,7/8,2h[2:1],1,2/1,2/1,3h[2:1],4,4/3,3/4,
{1}5bx/4bx,4h[2:1]/5h[2:1],
{4}3,3,2,2,1,1,
{2}7/8,
{4}6,6,7,7,8,8,
{2}2/1,
{4}2,2,3,3,4,4,
{2}6/5,
{4}7,7,6,6,5,5,
{2}4bx/3bx,
{4}3,3,2,2,1,1,7/8,7/8,6,6,7,7,8,8,
{2}2/1,
{4}2,2,3,3,4,4,6/5,6/5,7,7,6,6,5,5,
{2}3/4,
{1}2-5[2:1],7-4[2:1],3-8[2:1],
{2}7,7/8,
{1}7-3[2:1],2-5[2:1],6-1[2:1],
{2}2,2/1,3h[2:1],4h[2:1],5h[2:1],6,6h[2:1],5h[2:1],4h[2:1],3,2h[2:1],3h[2:1],4h[2:1],5,7h[2:1],6h[2:1],5h[2:1],4,
{4}5,5,6,6,7,7,8,8,1,1,2,2,3,3,
{2}5/4,
{4}B4,B3,
{2}B2,
{4}B5,B6,
{2}B7,
{4}B3,B2,B1,B8,B7,B6,
{2}C1,{1},
{4}7,7,7/8,7/8,1,1,
{2}2/1,
{4}3,3,1/2,2/1,8,8,
{2}7b/8b,
{4}7,7,6/5,6/5,4,4,
{2}3/4,
{4}2,2,3/4,4/3,5,5,
{2}6/5,
{4}6,6,7/8,7/8,1,1,2/1,2/1,3,3,2/1,2/1,8,8,
{2}7b/8b,
{4}7,7,6/5,6/5,4,4,3/4,3/4,2,2,3/4,3/4,5,5,
{2}6/5,
{1}7p4[4:5],,2q5[4:5],,6q1[4:5],,3q6[4:5],
{1},,,E
EXPERT
(164){1},
,3<6[4:3],7,6>3[4:3],2,2>6[4:3],7,7<3[4:3],{4}2h[2:1],,1x,,18,18,{8}2,2,1,,3,,34,,6,6,5,,78,,78,,6,6,5,,3,,34,,2,2,1,,18,,18,,2,2,4,,35,,46,,7,7,5,,8,,8,,17,,17,,2,2,8,,3b/7b,,,,
56,,7,7h[8:13],,5,,6,6,,5,5,,6,6,,8v5[4:1],,,,7>2[4:1],,,,4,,4,,35,,,,34,,2,2h[8:13],,4,,3,3,,4,4,,3,{4}3,1,1>6[2:1],,,1,1,28,,
5h[4:1]/6h[4:1],,E5/E6/E7,,3h[4:1]/4h[4:1],,E3/E4/E5,,2h[2:3],,E3,E2,E1,E8,E7,,5h[4:1]/7h[4:1],,E6/E7/E8,,2h[4:1]/4h[4:1],,E2/E3/E4,,E8,E7,E6,E2,E3,E4,E1,C,{1}B5h[1:1]/B4h[1:1]/E5fh[1:1],,
{8}18,,12,1/2>5[4:1],,,,6x,6x,,78,7<4[4:1]/8,,,,3x,3x,,12,12,,34,{4}4p8[4:1]/3>8[4:1],,,2x/8x,2x/8x,3,3h[4:1],1,1h[4:1],8,8h[4:1],6,6,56,78,12,34,{8}6,6,5,,4b/7b,,,,18,,78,8-4[8:1]/7-4[8:1],,,,3x,3x,,12,2-5[8:1]/1-5[8:1],,,,6x,6x,,78,78,,56,{4}6<1[4:1]/5q1[4:1],,,2x/4x,4x/5x,6,6h[4:1],8,8h[4:1],1,1h[4:1],3,3,34,12,78,56,34,24,56,5/7>4[1:1],
{1}Cf,,3h[2:3],{2}E5,E4,3q6[4:5],,,,7h[2:3],,E5,E6,{4}3,3,35,35,3/4x,3,35,35,3/4h[2:1],3,3,3,3/5h[2:1],3,3,46,6,6,46,46,5x/6,6,46,46,5h[2:1]/6,6,6,6,46,46,2b/8b,,
{8}2,2,1,3,,46,46,,7,7,8,6,,35,35,,2,2,1,,7,7,8,,16,,27,,38,,38,,2,2,8,8,1,1,7,,6,6,4,4,5,5,3,,24,,24,,45,,45,,5/7h[4:1],,8,8<2[8:5],{2},,1x/8x,
{8}2b>5[4:1]/1b-5[4:1],,,,,6x,6x,,7<4[4:1]/8-4[4:1],,,,,3x,3x,,12,,34,34,,56,{4}6p1[4:1]/5>2[4:1],,,7x/8x,5x/6x,3h[4:1],1h[4:1],8h[4:1],6,6h[4:1],8h[4:1],1h[4:1],3,13,56,68,34,13,13,4b/8b,,6<1[4:1]/5-1[4:1],,{8},2x,2x,,4-8[4:1]/3>8[4:1],,,,,7x,7x,,56,,78,78,,12,{4}2p5[4:1]/1<6[4:1],,,3x/4x,3x/4x,56,78,12,34,56,78,12,38,3-6[4:1]/8,,7-2[4:1],,3h[4:1],1h[4:1],8h[4:1],6q1>5[2:3],
{2},,,,6h[2:1],5h[2:1],{8}4,4,,,{2}35,3h[2:1],4h[2:1],5h[2:1],6,7-5-2[2:1],,1h[4:1]/8h[4:1],{1}E7/E3/B7/B3/C,,,,,,
E
MASTER
(164){1},
,{8}36,5,4,3,,6,5,4,6,5,4,3,,5,2,3,46,5,4,3,,6,5,4,6,5,4,3,,6,4,5,36,5,4,3,,6,5,4,6,5,4,3,,5,2,3,46,5,4,3,,5,4,3,6,5,4,3q5[8:3],,,,,8b,,56,7-4[8:1],,3,2<7[8:1],,5,5,6,,4h[8:1],5,3h[8:1],4,12,,78,1-4[8:1],,5,6>3[8:1],,2,2,1h[4:1],,4,5,46,46,1b,,34,2-5[8:1],,6,7>2[8:1],,4,4,3,,5h[8:1],4,6h[8:1],5,78,,12,8-5[8:1],,4,3<6[8:1],,7,7,8h[4:1],,5-1[8:1],4,3,,
2b/8b,,17,1>5[8:1]/7,,5-3-8[4:1],,6,6,5,8,26,,57,4,3,2/8qq5[2:1],,4,4-2[8:1],,,,,1h[4:1]/6<3[4:1],,,,4-8[8:1],,2x>5[8:1]/4x,,1b/2b,,78,1/6-4-7[4:1],,4,2-6[8:1],,1,8,5,37,,12,8,7,5-1[8:1]/6,,7,7<4[8:1],,1,{4}1V35[4:1],5V71[4:1],1>5[4:1],5<1[4:1],1>5[4:1],
E6h[4:7],,7,4>8[4:1],,,7,4,2-8[8:1],{8}4,5,5h[4:1],,2-8[8:1],,4,5,{4}5h[4:1],2,3/8<4[4:1],E4h[4:7],,2,5<1[4:1],,,2,5,{8}7,6,5-1[8:1],4,3h[4:1],,7,6,5-1[8:1],4,3h[4:1],,7,6,5pp4[4:3],4,{4}3xh[4:5],,,,4,4,{16}35,,1,7,{8}2b/6b,,
1/8<5[8:1],,4,2-8[8:1],,2-5[8:1]/5,,6,7-3[8:1],8-4[8:1],7,8,,35,2V46[8:1],6,8,,1,28,,56,4<2[4:1],3,2,,5>7[4:1],,7,,3b,,6,6h[4:1],,5,5-8[8:1],,4,,2,2h[4:1],,1,1-4[8:1],,8,,6h[8:3],5,4,3,2h[8:3],1,8,7,26,4,3/7-4q1[4:1],5,2x,2x,,,34,15,6,5/7-1[8:1],,4/7-4[8:1],,3,2-6[8:1],1-5[8:1],2,1,,46,7>6[4:1],5,6,,8,1-4[8:1]/7,,1/8-5[8:1],,18,2<7[8:1],,5pp4[4:1],,3,,1b,,25,3v8[8:1],4,5h[4:1],,1,2,3,47,6v1[8:1],5,4h[4:1],,8,3qq8[8:3]/7,6,5,,,,1/7h[8:3],2,3,4,5h[8:3]/6,7,8,1,2x<7[8:1],,4x>5[4:11],,
{1}Cf,,,{8}56,56,,,45,45,,,3h[8:3],,,4h[8:3],,,5h[1:2],,6,6,{4},,,7h[4:3],,,,{8}56,56,,,34,34,,,6h[8:5],E6,E5,E4,,2,3,4,6h[8:5],E6,E5,E4,,2,3,4,6h[4:1],,5,6h[4:1],,5,7,,6h[4:1],,5,6h[4:1],,5,7,,3h[8:5],E4,E5,E6,,7,6,5,3h[8:5],E4,E5,E6,,7,6,5,4/6h[8:3],4,4,4,3h[8:3]/5,5,5,5,46,3,25,6,37,2,{16}1bw5b[8:1],8b,1b,8b,
{8}1b,,37,3/7h[4:1],,8,17,2h[4:1]/6,,4,6,8,12,3,46,46,3/7-1[8:1],,5,3-5[8:1],,8,7,6,35,2,46,7V51[4:1],3,2h[8:3],,,8b,{16}2/8,7,6,5,4,3,1,8,7,6,5,4,3,2,8,7,6,5,4,3,2,1,4x/8x,3x/7x,{8}2bxh[4:1]/6bxh[4:1],,,15,3-8[8:1]/7,,6,5,2,8<5[8:1],4,2x-5-3-8[4:1]/8x,,26,7xh[8:7],,,,,E6,,E2,,45,{16}1x/8x,1x/8x,{8}2b/7b,,
1/6-4-7[4:1],,4,2-6[8:1],,1,8,7,1/6-1[8:1],2-5[8:1]/5,6,2,,48,2qq1>5[8:3],5,7,,7,6h[4:1],,7,8,1,2/8w4[8:1],,8,,26,{16}7,8,{8}1x>4[8:1]/6x,,5,7h[4:1],,5,8-5[8:1],,5,,4,2h[4:1],,4,1-4[8:1],,4,,7h[8:3],8,1,2,3h[8:3],4,5,6,37,1,2-5p8[4:1]/6,4,7x,7bx,,,2-6[8:1],8<5[8:1],2,8>2[8:1],,4-8[8:1]/8,,3,2-4[8:1],6-1[8:1],2,6,,58,3pp7[8:3]/6,14,2,,1,1V75[4:1],,5V31[4:1],,1,7-3[8:1],,78,,{16}1w5[8:1]/5,26,{8}37,1bx,,7,7,5,4>1[8:1]/6,,8,7,6,4,3/5<8[8:1],2,1,,12,{16}3,4,3,4,{8}1x-5[8:1]/5x,6,6,6,4x/8x-4[8:1],3,3,3,1x-5[8:1],2,6x-3[8:1],7,2x-7[8:1],1,6x<3[4:33],5,
{1}Cf,{8}3,3,,,,,,,{1}4h[4:3],{8}4,4,,,5,5,{4},6,5,6,5,7,6,7,6,8h[8:1],7h[8:1],8h[8:1],7h[8:1],8h[8:1],7>2[8:1],,{1},,,,,,
E
Re:MASTER
最終更新:2026年05月19日 10:14