| アーティスト |
M2U / Arranger : M2U & NICODE / Vocal : Guriri & Lucy |
BASIC
ADVANCED
EXPERT
MASTER
(160){2}8/1>8[4:5],B1/E1/B8,
{4}E3,E4,E5,E6,
{4}7/8>7[4:5],,E7/D7,E8/D8,
{4}E1/D1,E2/D2,E3/D3,E4/D4,
{4}3h[4:1]/5,4h[4:1],5h[4:1],6h[4:1],
{4}E8h[4:1]/A8h[4:1]/D8h[4:1],,1,2>7[8:7],
{4}C1,,8,1,
{2}2>7[8:7],C1,
{32}B4,E5,,,,,,,,,,,8,,,,7,,,,6,,,,5,,,,4,,,,
{8}3/5,4,5,6,7,8,1,1,
{16}2/4,,2,4,2,4,2,4,3,1,3,1,2,8,1,7,
{48}8,,,6,,,8,,,6,,,5,,,7,,,5,,,7,,,4,,3,,2,,1,,8,,7,,6,,5,,4,,3,,2,,1,,
{16}7b/8bx,,,,2/1-5[8:1],,,8,1x>3[8:1],,,,1/7,,,,
{16}4/6,,,,7/8-4[8:1],,,1,8x,,3,,5,,7,,
{16}3/7,,2,1,3,4,2,5,1xh[8:1],,7,8,6,5,7,4,
{16}8h[8:1],,1,7,3-1[8:1],5,4,6,3x-5[8:1],,8,,3,,6,,
{32}7h[16:7],,,,,,,,5,,,,,,4,3,2xh[16:7],,,,,,,,1,,,,,,4,5,
{32}6h[16:7],,,,,,,,5,,,,,,8,1,2x,,,,4,,,,6,,,,3/7,,,,
{16}2,8,2,8,3,1,2,8,1x,7,1,7,8,6,1,7,
{16}2bxh[4:1]/8x,,,,A1,E1,E8,A7,B2,C1,B6,A6,A3,E4,E5,A5,
{16}1,8,7,6,5<1[4:1],4,3,2,1,,,,,,,,
{32}2bx/8xh[4:3],,,,,,,,E4,A4,,,,,,,6,,,,5,,,,4p8[4:1],,,,,,,,
{4}6h[4:3],,8,8q5[8:3],
{8}7,,7,,8h[4:1],,5-1[4:1],7,
{8}6,,7V53[2:1],8,1,,1,,
{8}2h[2:1],,B3/E4,,4,4,3/5h[4:1],2,
{4}1h[4:1],6h[4:1],8h[4:1],7,
{16}1/6,,2,2,4,4,3,3,C1,,,,1/8,,,,
{8}4/6bp4[8:3],,3>1[8:1],,3x,,2/5,3/6,
{8}7/4q6[8:3],,8>2[8:1],,8x,,1/5,3,
{8}4/2-5[8:1],1,2/8-3[8:1],7,8x/6-1[8:1],5,6/4pp4[8:3],3,
{16}2h[4:1]/4,,,,,,,,1x,,1,4,3,6,5,8,
{8}2>6>2[2:1],,1,,7x,,8,7,
{4}2-8[8:1]/6<8[8:1],2>4[8:1]/6-4[8:1],2x/6,7/8>4-7[2:1],
{4}5,7-2[4:1],2x-5[4:1],5,
{16}8bx,,,,7/8,,1/6,,2/5,,3,4,2b/5b,,,,
{8}4/7<4-8[8:3],,1>3[8:1],,1x,,4/7,3/6,
{8}5/2>5-1[8:3],,8<6[8:1],,8x,,2/4,3,
{8}4/5-2[8:1],6,5/7-4[8:1],8,7x/1-6[8:1],2,1/3<8[4:1],2,
{16}1,,1,2,3,4,5,,8x,7,6,5,2,3,2,3,
{8}2>5-1[8:3],,8<5b[8:1],,8x,,2/5x,3/6,
{8}4/7<4-8[8:3],,1>4b[8:1],,1x,,4x/7,3/6,
{4}2-4[8:1]/5-2[8:1],2/5-8[8:1],5x/1w5[8:1],1,
{4}3b/7b,6h[8:1]/4-8[8:1],4/6h[8:1],6h[8:1]/1>4[8:1],
{4}1/7h[8:1],7h[8:1]/5-8[8:1],5/7h[8:1],7h[8:1]/8x,
{8}1/7,1/7,1/7,1/7,2/8,3/7,4/6,4/6,
{16}3,5,3,5,4,6,5,7,2,4,3,5,8b,,,,
{16}1/7,2,3,4,2,3,4,5,A8,A7,A6,A5,A4,A3,A2,A1,
{16}7x,6,5,4,8,1,2,3,5x,6,7,8,2,3,4,5,
{24}7h[2:1],,,,,,,,,,,,1b,8,1,8,1,8,1,8,1,8,1,8,
{24}1,8,1,8,1,8,1,8,1,8,1,8,1,8,1,8,1,8,1<3[4:1],8,1,8,1,8,
{48}1x,,,,,,,,,,,,1-5b[8:1],,8,,7,,6,,5,,4,,A1f/3,,,,,,,,,,,,4/6,,,,,,7,,,8,,,
{16}6>3[8:1],2,1,3,6b<1[8:1],,,,6b/2bw6[8:1],,3,,2b,,,,
{24}4/8,1,2,3,4,5,6/8-4-6-1[8:3]b,1,2,3,4,5,6/8b,,,,,,2,,,A1f/D1/D2/5bx,,,
{16},3x/7x,3x/7x,,5/6,,7/8,,2b/1b-4[8:1],,2,8,1b,,7x,,
{48}7,6,5,4h[8:1],,,,,,8,7,6,5h[8:1],,,,,,1,8,7,6,,,B3/B4/E4f,,,,,,,,,,,,1/7,,,,,,2,,,6,,,
{16}2<7b[8:1],6,3,5,2b>5b[8:1],,6,6,2bw6[8:1],,8,,2b,,,,
{24}4h[16:1]/8h[16:1],,,4h[16:1]/8h[16:1],,,1h[16:1]/3h[16:1],,,1h[16:1]/3h[16:1],,,2/8,3/7,4/6,5bx,,,3/7-3[8:1],,,2b-8-6-4[8:3]b,,,
{8}7,A2f,,,1b-5[8:1],8,1b/7>5b[4:1],,
{96}A7f,,,,,,,,,,,,,,,,,,,,,,,,8,,,,1,,,,2,,,,3,,,,4,,,,5,,,,6/8bx,,,B8f,,,C1,,,B4,,,A4,,,,,,,,,,,,3h[16:1]/5h[16:1],,,,,,,,,,,,3h[16:1]/5h[16:1],,,,,,,,,,,,
{16}7>2b[8:1],4,6,4,7b<4b[8:1],,3,3,7bw3[8:1],,1,,7b,,,,
{24}1/5,8,7,6,5,4,3/1-5-3-8[8:3]b,8,7,6,5,4,1b/3,,,,,,7,,,D1/A8f/D8/4bx,,,
{16},2x/6x,2x/6x,,3/4,,1/2,,7b/8b-5[8:1],,7,1,8b,,2x,,
{48}2,3,4,5h[8:1],,,,,,1,2,3,4h[8:1],,,,,,8,1,2,3,,,A5/E6/A6/D6f,,,,,,,,,,,,7,,,8,,,6,,,6,,,
{16}2,1,3,3,1b<6[8:1],,4,4,1bw5[8:1],,2,2,1b,,,,
{48}3b,,2,,1,,7,,6,,5,,3v8[8:1],,2,,1,,7v4[8:1],,6,,5,,3,,,,,,A7f,,,,,,1,,,1,,,1,,,,,,
{24}3/7,,,6,5,6,5-1-7-2>4[2:1],6,5,6,5,6,5b,,,,,,,,,,,,
{4}8b,,,4/6,
{4}5h[2:1]/7,7,6h[2:1],5,
{16}7>3[16:5],,,,,,E7,E6,E5,,,,3h[2:1],,,,
{8}4,,2<5[8:3],,3,,,B4/E4,
{8}E3/D3,,1,1h[8:3],3,4,5-1[4:1],6,
{16}7,,,,8,,8,7,6/1-6[4:1],,2,,3,,4,,
{8}4-1[4:1],5,6,7,7-4[4:1],8,1,2,
{32}3h[2:1],,,,,,,,4,,,,1,,8,,7h[16:3],,,,,,D6,A5,D5,,,,6,,,,
{16}3h[4:1],,5h[4:1],,,,2,,1/6,,8,7,1,8,2,1,
{16}4>8[4:1],,,,8V24b[4:1],7,6,5,4V28[4:1],,6,,8>4b[4:1],,6,,
{4}4<4[2:1],8>7b[16:7],,,
{8}8b,,,,7/8,1,2,3,
{4}2/4h[4:1],6h[4:1],8h[4:1],2h[2:1],
{2}B4h[2:1],1bxh[2:1],
{8}6,6,C1/2,2,E1/7,7,1b/8b,,
{16}1,2,3,4,2,3,4,5,1,8,7,6,5,4,3,2,
{16}8x,7,6,5,4/8x,1,2,3,4/5x,6,7,8,1/2x,3,4,5,
{16}8,1,2,3,4>8[4:1],5,6,7,A4f/8b<4[4:1],A3,A2,A1,A8,A7,A6,A5,
{16}A4/1,2,3,4,1/5<1b[4:1],2,3,4,A5/1,A6,A7,A8,A1/6,A2/7,A3/8,A4/1,
{1}A5h[1:1]/2bx,
{2}B3/E3,E2,
{2}C1,E7,
{2}E6,E5,
{4}A4h[2:1]/A5h[2:1]/D5h[2:1]/3,2,1,1,
{4}B4/B5/E5/8,7,C1/6,6,
{4}E5/6h[4:1],5h[4:1],4h[4:1],3q4[1:4],
{24}A2,D2,A1,,,,,,,,,,,,,,,,,,,,,,
Re:MASTER
最終更新:2026年04月18日 12:26