BASIC
ADVANCED
EXPERT
(183.5){1}4/6,5/3,4/6,{4},3,4,6,{2}3/5,,2/5,4,4/7,3,{4},3,4,6,{8}3/5,,,,,6,5,4,3x,,,,,5,4,3,{2}4/6,2,3h[4:1]/5h[4:1],6h[4:1]/4h[4:1],3/7,{8}6,4,5,4x,3x/6,,5,,3,,5x,4x,3x/5,,{16}3,5,3,5,3,5,3,5,3,5,3x,4x,{4}5x,,2x>5[4:1],,6,5,{8}4x,5x,5x,4x,
{8}3x,,5/7,6,,4/2,3,,6>3[8:1],6,,,1-5[8:1],,,,4/6,,6/8,7,,3/1,2,,7>2[8:1],7,5,,6>3[8:1],,1,,8,,5/7,6,,4/2,3,,6>3[8:1],6,,,1-5[8:1],,,,4/6,,5/7,6,,3/1,2,,8,3/7,3V51[8:3]/7h[2:1],,,,,,{8}6b,,1,2,7,6,B8,C,B4f,,2,1,8,7,6,5,4,3,3-1[8:1],,6-8[8:1],,4,,{4}5V73-1[2:1]b,,,,8x,3b/5b,2b/6b,{16}5x,4x,3x,,{4}5x,2b/8b,3b/7b,{16}8x,1x,2x,,{4}8x,5/7,2/4,1/8,2/7,{16}1,8,1,8,{4}1-5[8:1],7b,
{4}4/6,{12}3/5,3/5,,6/4,6/4,,3/5,3/5,,{4}4/6,2h[4:1],4,3/4,5xp8[4:1],,4xq1[4:1],,5,{16}1,8,1,8,{4}1,4/6,3/5,{12}2/4,2/4,,5/7,5/7,,2/4,2/4,,{4}5/7,2h[4:1],4,3/4,5xp8[4:1],,4xq1[4:1],,5,{16}1,8,1,8,{4}1,4/6,4/6,{12}7x,6x,5x,3x,2x,1x,6x,5x,4x,{8}2,2,6,6,4,4,5,3,3/5,,{12}7x,6x,5x,3x,2x,1x,6x,5x,4x,{8}2,2,6,6,4,4,5,3,3/5,,{12}7x,6x,5x,3x,2x,1x,6x,5x,4x,{8}1,1,3/5,3/5,7,7,1/5,1/5,7,7,3/5,3/5,7,7,1/5,1/5,2/6,2/6,3/7,3/7,2q6[4:1],,,,
{16}8b,,,,6,5,6,,3,4,3,,6,5,6,,4/7,,,,3,4,3,,6,5,6,,3,4,3,,5/2,,,,7,5,7,,2,4,2,,7,5,7,,4/6,,,,1,8,1,8,1,8,1,8,1,,,,{4}2b/7b,6-1[4:1],,2-5[4:1],,7-4[4:1],,3,2b/5b,3-8[4:1],,7-4[4:1],,2-5[4:1],,6,{16}7,5,7,5,{4}7,E8f,,{16}2,4,2,4,{4}2,E2f,,{16}6,5,6,5,6,,,,3,4,3,4,3,,,,1,8,1,8,1,8,1,8,1,8,1,8,1,8,1,8,
{8}2b,,4/6,5,4/6,,3/7,,6h[4:1],,8h[4:1],,2h[4:1],,4,,3x/5x,,5/3,4,5/3,,6/2,,{4}3-5[8:1],,7-1[8:1],2-4[8:1],6,2-5[8:1]/6,6,2-4[8:1]/6,6,2-5[8:1]/6,6,2-4[8:1]/6,6,2-5[8:1]/6,6,6,{16}3,5,3,5,3,5,3,5,4,6,4,6,5b,,,,{8}6/8,6/8,1,1,2/8,2/8,1,1,3/7,3/7,8,1,2/8,,7/1,,6/8,6/8,1,1,2/8,2/8,1,1,3/7,3/7,8,1,2/8,,4/6,,3/7,,6,,{16}4,5,4,5,{4}4,3/4,1q6[4:1]b/2>5[4:1]b,,,
{8}4x/6x,5x/7x,4x/6x,3x/5x,4x/6x,,5,4,5x/3x,4x/2x,5x/3x,6x/4x,5x/3x,,4,3,5,6,{12}7x,7x,5x,6x,,2/4,,1/8,,{8}5/7,,3,3,5,5,4qq1[4:3],,5,,6,6,6,,5pp8[4:3],,4,,3,3,3,,4,,8bx,8,8,8,5/7,8,8,8,5b/7b,8,1b/3b,8,6b/7b,8,1b/2b,8,4b/6b,,3/7,2/6,1>6[4:1]/5,,,,1b,E
MASTER
(183.5)
{1}3h[8:7]/5h[8:15],4h[4:11],6^3[4:3],{4},D3,B3,B5,
{1}4h[8:7]/6h[8:7],{32}5,4h[32:15],,,,,,,{4},{2}3h[2:1],2h[2:1],1h[2:1],{4}8,7/E1,6/B2,5/A3,
4b>7pp2[16:13]/5,,{8},6,6,,{32}5,4,3h[16:11],,,,,,{8},,2,,1^6[8:1],2,
{4}3/A1f,3,2/B4h[4:1],1^6[8:1],2x/A1f,5^2[8:1],6x/A5f,8v3[8:1],
A8f/1bh[1:1],{8}2,2,3,3,{16}3,4,5,6,7bhx[2:1],,,,D1,D8,D7,D6,D5h[4:1],,,,1,8,7,6,
5/1bx,,2,4,2,4,2,4,3b,1,3,1,3,1,3,1,{4}2b,47,{8}26,26,3-8[8:1]/5,46,
{2}7b/A3f,{16}7,8,7,8,{8}1/6b,,
25,2^7[8:1],3,4,4,5,5V38[4:1],6,8,7,6,15,2-5[8:1]/6-1[8:1],,26,,
84,7^2[8:1],6,5,5,4,4V26[4:1],5,6,7,{4}8-3[8:1]*-5[8:1],8,1-5[8:1]/7b,
{8}1b/8,7-4[8:1],6,8,1,2,3-5v8[4:1],8,7,6,6,6,7-4[8:1]/8-3[8:1],,78,,
15,2-5[8:1],3,5,6,7h[8:1],5-3v8[4:1],3,2,1,{4}1w5[8:1],1,3b/7b,
{16}1x/6x,,16,27,38,,38,27,{8}1-5[8:1]/6,5-2[8:1],6-1[8:1],,
6bx,,38,{16}7,5,6h[8:1],,{24}1,2,3,4,5,6,7,8,1,
{16}2/5h[4:1],,,,4,6,5,7,{4}8-3[8:1]*-4[8:1],8,{16}5,2,5,2,6,1,6,1,7,8,7,8,7,6,7,6,
{4}5bv8[8:1]/8b-5[8:1],8b^3[8:1],D6/A6f/D7,{16}5,6,7,8,
{4}1b-5[8:1]/3b,1b^6[8:1]/2,1/4bh[4:1],{24}5x,6,7,8,1,2,
3h[4:1]/4b,,,,,,2,1,8,7,6,5,{4}4-8[8:1]/2b-5[8:1],2/4b,
{16}47,,3,8,2,1,2,1,{4}2w6[8:1],2,
4b/8b,{12}7,7,7,5,5,5,4,4,4,{24}3/5x,,,1,7,1,{4}7h[4:1],8v5[8:1],B7/E7,
{8}46,3h[16:1]/5,3h[16:1]/5,3h[16:1]/5,3h[16:1]/4,3h[16:1]/2,3h[16:1]/1,3h[16:1]/8,
3-6[8:1]/7,2/6^4-8[4:1],7,8,{4}7h[4:1],1,
3bx/5bx,{12}2,2,2,4,4,4,5,5,5,{24}6/4x,,,8,2,8,{4}2h[4:1],1-5[8:1],B2/E3,
{16}7/8b,,78,,6,5,6,,2b/4,,24,,1,5,1,5,8b,,8,,8,6,1,7,{4}2bx-4[8:1]/8bx-4[8:1],28,
{12}3bh[4:1]/5b,,,4qq7[8:3],3,5h[3:4],{2}4x,{16}A8f,A1,A2,,D8f,D7,D6,,8bx,1,2,,8bx,7,6,,
{12}7b/5b,,,4pp2[8:3],5,3h[3:4],{2}4x,{16}D1f,D2,D3,,A8f,A7,A6,,8bx,1,2,,1bx,8,7,,
{12}2b/4b,,,5qq8[8:3],3,6h[6:5],{2}5x,{16}1bx,2,3,,1bx,8,7,,7b/8b,16,25,,1b/2b,38,47,,
{8}5x/6x,56,3,3,24,24,15,15,{16}8,6,8,6,2,4,2,4,1b,5b,3b,7b,{8}1b/B5/B6/E6f,,
7-4[8:1],7,8,1,2-5[8:1],2,5,6,7-3[8:1],7,8,1,2-6[8:1],2,6,7,
7b-4[8:1]b,68,1,1,2b-5[8:1]b,13,8,8,{16}8bx,1,2,3,4/8bx,5,6,7,8/4bx,1,2,3,4bx,35,26,17,
{1}8bhx[1:2],{4}B1,B6,B3,B5/E5/E6,{1}2bhx[1:2],{4}B8,B2,B6,4,
{16}E4,E5,E6,E7,{4}E8h[4:1],1bhx[2:1],,{16}E3,E4,E5,E6,{4}E7h[4:1],8bhx[2:1],,
{16}E1,E2,E3,E4,E5,E6,E7,E8,{4}1h[4:1],7h[4:1],5h[4:1],3h[4:1],1^6[8:1],5-8[8:1]b,
{8}4/A5f,,12,12,3h[4:1],,4h[4:1],,{16}2,4,2,4,3,1,3,1,2,8,1,7,8^3[8:1],6,8,5,
{8}8b,,56,56,7h[4:1],,8h[4:1],,{16}6,8,6,8,7,5,7,5,6,8,7,1,8,2,1,,
34,5,6,7,8/1-6[8:1],2,3,4,{8}5/A1f,,7,7h[8:1],{16}5,4,3,2,1/8-3[8:1],7,6,5,4/A8f,,,,2,2,1,,
38,4,5,6,1-5[8:1],8,7,6,{4}5bx-1[8:1]b,8bx,7-5[8:1]/8-4[8:1],7-3[8:1]/8-2[8:1],7/8w4[8:1]b,D8/A8f/D1,
{16}1bx/5b,,1x/5,,2,4,2,4,3bx,,4x/8,,7,5,7,5,6bx,,5x/1,,4,2,4,2,4bx^7[8:1]b,,{32}D4,A3,D3,A2,{4}D2f,
{16}5b/8bx,,5/8x,,7,6,7,6,8b,,14,,2,3,2,3,1b,,58,,6,7,6,7,5bx^2[8:1]b,,{32}D6,A6,D7,A7,{4}D8f,
1b/8bx,{8}1,8,{12}1,8,{16}1,8,1,8,1,{48}8,{16}2,3,4,5,1,2,3,4,
{64}5/D2,A2,D3,A3,D4,A4,D5,A5,D6,A6,D7,A7,D8,A8,D1,A1,{4}D2/E2/A2f,
{16}1b/6b,,16,,2-6[8:1],3,47,8,12,,7bh[8:1],,5,6,4,5h[16:3],
,,1,,7-3[8:1],6,52,1,87,,2bh[8:1],,4,3,5,4V28[16:5],
,,26,,{12}8h,7h,6h,5h,,{48}2,3,,,,,,,6,5,,,,,,,{16}3/8<4[32:5],,,,3,2,1,8,{4}7-2[8:1]/3-6[8:1],7b/3b,
1h[4:1]/5b,{16}4,5,6,7,8/2x,7,6/2x,5,4/2x,5,6,7,8/1b,2,3,4,56,4,3,2,17,2,3,4,58,4,3,2,
{12}1x/6b,,,25,2,2,3x/6,6,6,5/7x,5,5,4b/8b,48,48,3b/7b,37,37,2b/6b,26,26,1b^4[8:1]b/5b^8[8:1],15,15,
{16}1bx/5bx,,,,15,84,73,62,5h[8:1]/1,,{24}1,2,3,4,5,6,7,86,17,
{48}8bxp5[4:7]*q3[4:7]/2bx,3bx,4bx,5bx,{1}6bx,,,,E
Re:MASTER
- MASTER譜面を追加しました。修正等ありましたらよろしくお願いします。 -- けもがみ (2026-04-17 15:46:29)
- EXPERT譜面を追加しました。修正等ありましたらよろしくお願いします。 -- Sugar (2026-04-18 19:16:20)
最終更新:2026年04月18日 19:16