アットウィキロゴ

やめろ!聴くな!

アーティスト SLAVE.V-V-R

BPM EASY BASIC ADVANCED EXPERT MASTER Re:MASTER
160 3 6 8+ 10 13 -

EXPERT MASTER Re:MASTER
譜面制作者 しろいろ はっぴー -

EASY


BASIC


ADVANCED


EXPERT


MASTER

(160){4},,
3-1[8:1]/4-6[8:1],,56,,5-3[8:1]/6-8[8:1],,25,,
3-1[8:1]/4-6[8:1],,56,,5-3[8:1]/6-8[8:1],,25,,
3-1[8:1]/4-6[8:1],,3-1[8:1]/4-6[8:1],,3-1[8:1]/4-6[8:1],,56,5-3[8:1]/6-8[8:1],
,34,4-1[8:1]/5-8[8:1],,5-3[8:1]/6-8[8:1],,34,3-1[8:1]/4-6[8:1],
,56,4-1[8:1]/5-8[8:1],,
6^3[8:1]/7,,{16}12,,,56,{8},38,16,,2/3^6[8:1],,,,78,{16},34,{8},16,38,,

5h[8:1],4,5h[8:1],8,5h[8:1],3,5h[8:1],6,5h[8:1],4,36,,
4h[8:1],5,4h[8:1],1,4h[8:1],6,4h[8:1],3,4h[8:1],5,36,,
5h[8:1],4,5h[8:1],8,5h[8:1],6,5h[8:1],2,5h[8:1],4,26,,
4h[8:1],5,4h[8:1],1,4h[8:1],3,4h[8:1],7,4h[8:1],5,37,,

7h[16:3],{16},1h[16:3],,,3h[16:3],,,5h[16:3],,,6,5,6,,2h[16:3],,,8h[16:3],,,6h[16:3],,,4h[16:3],,,3,4,3,,
7h[16:3],,,1h[16:3],,,3h[16:3],,,5h[16:3],,,6,5,6,,{4}3-8[8:1]/4,6-1[8:1],4-8[8:1],5,
{16}7h[16:3],,,5h[16:3],,,4h[16:3],,,2h[16:3],,,4,3,4,,2h[16:3],,,4h[16:3],,,5h[16:3],,,7h[16:3],,,5,6,{8}5,
47,6,25,3,16,7,{4}3-7[8:1]/8-4[8:1],,1-5[8:1]/6-2[8:1],,3b/7b,

1-4[8:1]/2-5[8:1],12,{16}6h[16:3],,,7h[16:3],,,8p2[4:1],,,,1,,1,,,,3h[16:3],,,2h[16:3],,,1q7[4:1],,
,,8,,8,,,,6h[16:3],,,7h[16:3],{8},8,4-2[8:1],4,6-8[8:1],6,5-1[8:1],5,6,,
7-4[8:1]/8-5[8:1],,78,,3h[16:3],{16},2h[16:3],,,1q7[4:1],,,,8,,8,,,,6h[16:3],,,7h[16:3],,,8p2[4:1],,
,,1,,1,,,,3h[16:3],,,1h[16:3],,,8,,{4}2-5[8:1]/7-4[8:1],27,1-5[8:1]/8-4[8:1],18,
7-4[8:1]/8-5[8:1],78,{16}3h[16:3],,,2h[16:3],,,1q7[4:1],,,,8,,8,,,,6h[16:3],,,7h[16:3],,,8p2[4:1],,
,,1,,1,,,,3h[16:3],,,2h[16:3],{8},1,5-7[8:1],5,3-1[8:1],3,4-8[8:1],4,3,,
1-4[8:1]/2-5[8:1],,12,,6h[16:3],{16},7h[16:3],,,8p2[4:1],,,,1,,1,,,,3h[16:3],,,2h[16:3],{8},1q7[4:1],
,8,8,,5,4,{4}2-5[8:1]/6-4[8:1],26,3-5[8:1]/7-4[8:1],37,1b-6[8:1]/7b-3[8:1],
17,2-6[8:1]/8-3[8:1],28,1-6[8:1]/7-3[8:1],17,2-6[8:1]/8-3[8:1],28,1pp1[8:3]/7qq7[8:3],

1b/7b,,{16}46,,,35,,,45,,{4}2qq7[8:3]/7,
,,{16}35,,,46,,,45,,2h[4:1]/7,,,,4,,,,,,,6,,6,5,,38,,,,
16,,3,4,3,,6,5,6,,3,4,3,,6,5,7,,3,4,2,,6,5,7,,3,4,{8}2^7[8:1],2,
6q2[8:1],6,3^6[8:1],3,7^2[8:1],7,3,3,3-8[8:1]/4-7[8:1],,34,,5-2[8:1]/6-1[8:1],,56,,
3-1[8:1],3,5-7[8:1],5,4-8[8:1],4,5,5,5-2[8:1]/6-1[8:1],,56,,34,3,7^2[8:1],7,
3p7[8:1],3,6^3[8:1],6,2^7[8:1],2,5s1[2:3],5,{4},,,,,,,27,
{24}1,8,1,8,1,8,1,8,1,8,1,8,1w5[4:1],8,1,8,1,8,{4}1,,8b,,,

2^7[8:1]/8-4[8:1],28,{16}5h[16:3],,,4h[16:3],,,3q1[4:1],,,,1,,2,,3,,3h[16:3],,,5h[16:3],,,6p8[4:1],,
,,8,,7,,6,,6h[16:3],,,4h[16:3],{8},3,4-8[8:1],4,5-7[8:1],5,3-1[8:1],3,4,,
1-5[8:1]/7^2[8:1],,17,,4h[16:3],{16},5h[16:3],,,6p8[4:1],,,,8,,7,,6,,6h[16:3],,,4h[16:3],,,3q1[4:1],,
,,1,,2,,3,,5h[16:3],,,4h[16:3],,,5,,{4}3-8[8:1]/6-1[8:1],36,4-8[8:1]/5-1[8:1],45,
7^2[8:1]/8-4[8:1],78,{16}4h[16:3],,,5h[16:3],,,6p1[4:1],,,,1,,8,,7,,7h[16:3],,,5h[16:3],,,3q8[4:1],,
,,8,,1,,2,,2h[16:3],,,5h[16:3],{8},6,5-1[8:1],5,4-2[8:1],4,6-8[8:1],6,5,,
1-5[8:1]/2^7[8:1],,12,,5h[16:3],{16},4h[16:3],,,3q8[4:1],,,,8,,1,,2,,2h[16:3],,,4h[16:3],,,6p1[4:1],,
,,1,,8,,7,,4h[16:3],,,5h[16:3],,,4,,{4}3-8[8:1]/6-1[8:1],36,4-8[8:1]/5-1[8:1],45,

2b/6b-1[8:1],5,1/6-1[8:1],5,1/6-1[8:1],5,2-5[8:1]/5,1,
16,48,{12}36,36,36,{4}3/6-8[8:1],4-2[8:1],5-1[8:1],4-8[8:1],5,
7-1[8:1],5-3[8:1],6-2[8:1],1v4[8:1]*v6[8:1],,3v1[8:1]/7v5[8:1],,8v3[8:1]*v5[8:1],
,{8}5,4,{4}26,3-5[8:1]/7-4[8:1],37,2-5[8:1]/6-4[8:1],26,2b-6[8:1]/8b-3[8:1],
28,1-6[8:1]/7-3[8:1],17,2-6[8:1]/8-3[8:1],28,1-6[8:1]/7-3[8:1],17,2pp2[8:3]/8qq8[8:3],

2b/8b,,{16}45,,,24,,,13,,{4}1/7p5[8:3],
,,{16}45,,,57,,,68,,{4}2q4[8:3]/8,
,,{16}56,,,25,,,13,,{4}1/7p5[8:3],
,,{16}34,,,56,5-2[8:1]/6-1[8:1],,,,{1}5b/6b,,,E

Re:MASTER


名前:
コメント:

タグ:

+ タグ編集
  • タグ:
最終更新:2026年10月01日 21:52