アットウィキロゴ

東京レトロ

アーティスト すこっぷ

BPM EASY BASIC ADVANCED EXPERT MASTER Re:MASTER
126 1 4 7+ 9+ 11+ -

EXPERT MASTER Re:MASTER
譜面制作者 玉子豆腐 はっぴー -

EASY


BASIC


ADVANCED


EXPERT


MASTER

(126)
{4}3-6[8:9]/7-2[8:9],,,{1},,,{4}4/6h[4:13],5,3,5,2,5,1,5,1,5,1,
{8}4,3,2,,
{4}5qq2[8:3],,,4/3h[4:7],5,
{8}8,7,5,,4,,5,,7,8,6,,6,,7,,4,3,6,5,3,2,6,7,1,8b,8b,,
{4}5/3^8[8:1],4,4/6^1[8:1],5,5/3^8[8:1],4,8/7-5[8:1],4,4/6^1[8:1],5,5/3^8[8:1],4,4/6^1[8:1],5,
{8}1/2,3,3/4,,
{4}4/6^1[8:1],5,5/3^8[8:1],4,4/6^1[8:1],5^2[8:1],6h[4:1],7^2[8:1],5,3^6[8:1],8,8/7pp4[2:1],2,,,
{8}3/6,5^2[8:1],6,7h[4:1],,4^7[8:1],3,2h[4:1],,5^2[8:1],6,7h[4:1],,4^7[8:1],3,2h[4:1],,5^2[8:1],6,7h[4:1],,4^7[8:1],3,2h[4:1],,8^5[8:1],1,2,3>6[4:1],4,,,,4^7[8:1],3,1h[4:1],,5^2[8:1],6,8h[4:1],,4^7[8:1],3,1h[4:1],,5^2[8:1],6,7,7^2[8:1],,
{4}4,3^6[8:1],1,
{8}8<1[2:1],,,,,,,4/5,4/5,,1h[8:1]/2h[8:1],,1/2,1/8,7h[8:1]/8h[8:1],,7/8,1/8,1h[8:1]/2h[8:1],,1/2,1/8,7/8,7-5[8:1]/8-4[8:1],7/8,,,5-3[8:1]/6-2[8:1],5/6,,,3V17[8:3]/4v6[8:3],3/4,,,,,,4/5,4/5,3/6,,7h[8:1]/8h[8:1],,7/8,1/8,1h[8:1]/2h[8:1],,1/2,1/8,7h[8:1]/8h[8:1],,7/8,1/8,1/2,1/2,1qq6[8:3]/2pp5[8:3],,,,,,4/7,,3/8,3h[8:5]/8h[8:5],,,,,,2b/3h[4:1],1b,8b,4/6^1[8:1]*q2[8:1],,,,5/3^8[8:1]*p7[8:1],,,,6-1[8:1],6,5-2[8:1],5,6h[4:1],,
{4}7^2[8:1],5,3^8[8:1]/7^4[8:1],,
{8}7p4[2:1]/8pp3[2:1],,,,,,,5,6,4,5/3^8[8:1]*p7[8:1],,,,4/6^1[8:1]*q2[8:1],,,,3-8[8:1],3,4-7[8:1],4,3h[4:1],,2^7[8:1],,4,,5/6,6,8,4,2,8,2V41[8:3]/7V58[8:3],,,,,,1b/8b,,6/3h[8:7],,4,4,5,4,5,6h[2:1],,5,4,3h[2:1],,4,5,7h[2:1],,5,4,2h[2:1],,5,6,8h[2:1],,4,3,1,,1/2,3/8,4/7,5/6,8b,8b,,4/1p5[8:1]*^6[8:1],,,,5/8q4[8:1]*^3[8:1],,,,1,3,8,6,7/2h[4:1],,
{4}3^6[8:1],1,8^3[8:1]*^5[8:1],,4/3>6[4:1],4,5,
{8}4/5,4/5,3/6,7,5/8q4[8:1]*^3[8:1],,,,4/1p5[8:1]*^6[8:1],,,,8,6,1,3,2/7h[4:1],,6^3[8:1],,8,,4/5,3/6,1^4[8:1]/8^5[8:1],,,,
{4}4/5qq5[8:3]*pp5[8:3],,,1b/8b,6/3^8[8:1],
{8}4,5,6^1[8:1],,5,4,3,,2/7<2[4:1],1,8,,8,,3/6^1[8:1],,5,4,3^8[8:1],,4,5,6h[4:1],,
{4}7^2[8:1],5,1/8,3/6^1[8:1],
{8}5,4,3^8[8:1],,4,5,6,,7/2>7[4:1],8,1,,1,,6/3^8[8:1],,4,5,6,5,6/3q6[8:3],6,,,,,1/8,,4/5,,
{16}4,5,3,6-3[8:1],2-7[8:1],6,2,,,,,,
E

Re:MASTER


名前:
コメント:

タグ:

+ タグ編集
  • タグ:
最終更新:2026年10月03日 22:29