アットウィキロゴ

このふざけた素晴らしき世界は、僕の為にある

アーティスト n.k

BPM EASY BASIC ADVANCED EXPERT MASTER Re:MASTER
152 2 4 8 10+ 12+ -

EXPERT MASTER Re:MASTER
譜面制作者 はっぴー Jack -

EASY


BASIC


ADVANCED


EXPERT


MASTER

(152)
{2},{4}5h[4:1],4h[4:1],
{2}7h[2:1],6h[2:1],5h[2:1],4h[2:1],3h[2:1],2h[2:1],1h[2:1],{4}3^6[8:1],8,
{16}7h[16:3],,,6h[16:3],,,5,,2h[16:3],,,3h[16:3],,,4,,
7h[16:3],,,6h[16:3],,,5,,2h[16:3],,,3h[16:3],,,4,,
{4}8<4[4:1],4>8[4:1],8<4[4:1],4>5[8:3],8,,{16}4,5,4,5,36,,,,

2h[16:3],,,1,2,,38,,7h[16:3],,,8,7,,61,,3h[16:3],,,4,3,,25,,2/5-8[8:1],,,,1,,2,,
3h[16:3],,,4,3,,25,,25,,6,5,6,,47,,4h[16:3]/7,,,5,4,,36,,5h[16:3],,,4,5,,36,,
7h[16:3],,,8,7,,61,,2h[16:3],,,1,2,,38,,6h[16:3],,,5,6,,74,,7/4-1[8:1],,,,8,,7,,
6h[16:3],,,5,{8}6,74,36,25,36,47,5^2[8:1]/8,,6,5,4^7[8:1]/1,,3,4,5,6,7,18,1-4[8:1]/8-5[8:1],,1b/8b,,

2,13,8,17,6,5,4,3,{16}2h[16:3],,,3h[16:3],,,4,,{4}2/5^8[8:1],1,
{8}7,86,1,82,3,4,5,6,{16}7h[16:3],,,6h[16:3],,,5,,{4}7/4^1[8:1],8,
{8}2,13,8,17,6,5,4,3,{16}2h[16:3],,,3h[16:3],,,4,,{4}2/5^8[8:1],1,
{8}7,86,2,13,6,57,3,24,5,{16}3,4,3,,5,,4,,6,5,6,,4,,5,,3,4,3,,5,,4,,6,5,6,,4,,
5,,3,4,3,,5,,4,,6,5,6,,4,,5,,3,4,{8}3,5,4,5,36,,

{16}24,,,35,,,46,,4/6h[4:1],,,,5,,6,,75,,,64,,,{8}53,5/3h[4:1],,4<8[4:1],3,
2,,,1,8,7,6,5,{16}24,,,57,,,18,,{2}1^4[8:1]/8^5[8:1],
{8}3/6h[8:1],,3/6h[8:1],2,1/7h[8:1],,1/7h[8:1],2,3/8h[8:1],,3/8h[8:1],2,1/7h[8:1],,1/7h[8:1],2,
6/3h[8:1],,6/3h[8:1],7,8/2h[8:1],,8/2h[8:1],7,6/1h[8:1],,6/1h[8:1],7,{2}8^3[8:1]/3v5[8:1],

{4}4^1[8:1],5,1/4-1[8:1],2,1/4^1[8:1],5,1/4-1[8:1],2,{8}1,2,3,4,5,6,7,8,1,2,3,4,{4}5^8[8:1],4,
8/5-8[8:1],7,8/5^8[8:1],4,8/5-8[8:1],7,8/5^8[8:1],1^4[8:1],
5,{8},18,27,{16}4,5,4,,36,,45,,,13,,,68,,68,,,45,,,13,,13,,,68,,,45,,{2}4-1[8:1]/5-8[8:1],

{16}7h[16:3],,,8,7,,61,,25,,3,4,3,,25,,2h[16:3]/5,,,1,2,,38,,3/8-4[8:1],,,,1,,2,,
3h[16:3],,,4,3,,25,,25,,6,5,6,,47,,6h[16:3],,,5,6,,74,,3/8^5[8:1],,,,4,,3,,
2h[16:3],,,1,2,,38,,74,,6,5,6,,74,,7h[16:3]/4,,,8,7,,61,,6/1-5[8:1],,,,8,,7,,
6h[16:3],,,5,{8}6,34,12,78,56,34,{2}2^5[8:1]/6^1[8:1],{16}4,5,3,6,2b,7,1,8,

1,,6,5,6,,3,4,3,,6,5,7,,3,4,2,,6,5,8,,3,4,1,,5,4,5,,27,,
27,,3,4,3,,6,5,6,,2,4,3,,7,5,6,,1,4,3,,8,5,6,,1,8,2,7,3,6,
45,,7,8,7,,2,1,2,,7,8,6,,2,1,3,,6,8,6,,3,1,3,,7,8,7,,2,1,2,,5,4,5,,1,8,1,8,1,8,1,8,1,8,

2b/7b,,3,3,4,,3,,24,,1^4[8:1],,5,,6,,7h[16:3],,,6h[16:3],,,5,,{2}4-8[8:1]/7-5[8:1],
{16}72,,6,6,5,,6,,75,,8^5[8:1],,4,,3,,2h[16:3],,,3h[16:3],,,4,,{2}5-1[8:1]/2-4[8:1],
{16}27,,3,3,4,,3,,24,,1^4[8:1],,5,,6,,7h[16:3],,,6h[16:3],,,5,,{2}4-8[8:1]/7-5[8:1],
{16}72,,6,6,5,,6,,75,,8^5[8:1],,4,,3,,2h[16:3],,,1,2,,38,,7h[16:3],,,8,7,,61,,

27,,3,4,3,,6,5,6,,4^1[8:1],,8,,7,,6h[16:3],,,7h[16:3],,,8,,{2}1-5[8:1]/6-8[8:1],
{16}38,,6,5,7,,3,4,2,,5^8[8:1],,1,,2,,3h[16:3],,,2h[16:3],,,1,,{2}8-4[8:1]/3-1[8:1],
{16}61,,3,4,1,,6,5,8,,4^1[8:1],,8,,7,,6h[16:3],,,7h[16:3],,,8,,{2}1-5[8:1]/6-8[8:1],
{16}27,,1,8,1,8,1,8,{4}1-5[8:1],8b,

{16}4h[16:3]/5,,,3h[16:3],,,2,,5h[16:3]/4,,,6h[16:3],,,7,,
4h[16:3]/5,,,3h[16:3],,,2,,4^1[8:1]/5,,6,,7,,8,,
1h[16:3]/8,,,2h[16:3],,,3,,8h[16:3]/1,,,7h[16:3],,,6,,
1h[16:3]/8,,,2h[16:3],,,{8}3,8^5[8:1]/1,2,3b,4,
5,6,7,8,4,5,4,3,2,1,5,4,5,6,7,8,1^4[8:1],5,6,7,8^5[8:1],1,2,3,{1}45,,,,E

Re:MASTER


  • MASTER譜面を追加しました。修正等ありましたらよろしくお願いします。 -- けもがみ (2026-08-02 19:57:37)
名前:
コメント:

タグ:

+ タグ編集
  • タグ:
最終更新:2026年10月03日 22:27